找回密码

蓝光电影网

查看: 612|回复: 1

[纪录] 拨开迷雾:山达基教与信仰囚笼/解密山达基 Going.Clear.Scientology.and.the.Prison.of.Belief.2015.1080p.BluRay.x264-BRMP 7.65GB

[复制链接]
蓝光币
623
发表于 2018-9-12 10:57:12 | 显示全部楼层 |阅读模式

拨开迷雾:山达基教与信仰囚笼/解密山达基 Going.Clear.Scientology.and.the.Prison.of.Belief.2015.1080p.BluRay.x264-BRMP 7.65GB-1.jpg
◎译  名 拨开迷雾:山达基教与信仰囚笼/解密山达基(台)/拨开迷雾:科学教与信仰囚笼/拨开迷雾:山达基与信仰囚笼
◎片  名 Going Clear: Scientology and the Prison of Belief
◎年  代 2015
◎产  地 美国
◎类  别 记载片
◎语  言 英语
◎上映日期 2015-01-25(圣丹斯电影节)/2015-03-29(美国)
◎豆瓣评分 8.3/10 from 3,159 users
◎豆瓣链接 https://movie.douban.com/subject/26279366/
◎片  长 119分钟
◎导  演 亚历克斯·吉布尼 Alex Gibney
◎主  演 劳伦斯·赖特 Lawrence Wright
      Mike Rinder
      Marty Rathbun
      汤姆·克鲁斯 Tom Cruise
      约翰·特拉沃尔塔 John Travolta

◎简  介

  奥斯卡最好记载长片导演亚历克斯·吉布尼的新作,按照LawrenceWright的报告文学改编,关于8位前科学教的信徒,解密他们在好莱坞的底蕴,电影由影象材料、高层的演讲和场景重现等组成。

◎获奖情况

  第68届美国编剧工会奖  (2016)
  电影奖 最好记载片剧本

  第66届美国剪辑工会奖  (2016)
  记载片最好剪辑(提名)

  第21届美国批评家挑选电影奖  (2016)
  最好记载片(提名)

  1. Video
  2. ID                                       : 1
  3. Format                                   : AVC
  4. Format/Info                              : Advanced Video Codec
  5. Format profile                           : [url=/cdn-cgi/l/email-protection][email protected][/url]
  6. Format settings                          : CABAC / 4 Ref Frames
  7. Format settings, CABAC                   : Yes
  8. Format settings, ReFrames                : 4 frames
  9. Codec ID                                 : V_MPEG4/ISO/AVC
  10. Duration                                 : 1 h 59 min
  11. Bit rate                                 : 8 678 kb/s
  12. Width                                    : 1 920 pixels
  13. Height                                   : 1 080 pixels
  14. Display aspect ratio                     : 16:9
  15. Frame rate mode                          : Constant
  16. Frame rate                               : 23.976 (24000/1001) FPS
  17. Color space                              : YUV
  18. Chroma subsampling                       : 4:2:0
  19. Bit depth                                : 8 bits
  20. Scan type                                : Progressive
  21. Bits/(Pixel*Frame)                       : 0.175
  22. Stream size                              : 7.27 GiB (95%)
  23. Writing library                          : x264 core 148 r2665 a01e339
  24. Encoding settings                        : cabac=1 / ref=4 / deblock=1:-3:-3 / analyse=0x3:0x113 / me=umh / subme=8 / psy=1 / psy_rd=1.00:0.25 / mixed_ref=1 / me_range=24 / chroma_me=1 / trellis=1 / 8x8dct=1 / cqm=0 / deadzone=21,11 / fast_pskip=1 / chroma_qp_offset=-4 / threads=12 / lookahead_threads=2 / sliced_threads=0 / nr=0 / decimate=1 / interlaced=0 / bluray_compat=0 / constrained_intra=0 / bframes=3 / b_pyramid=2 / b_adapt=2 / b_bias=0 / direct=3 / weightb=1 / open_gop=0 / weightp=2 / keyint=240 / keyint_min=24 / scenecut=40 / intra_refresh=0 / rc_lookahead=50 / rc=2pass / mbtree=1 / bitrate=8678 / ratetol=1.0 / qcomp=0.60 / qpmin=0 / qpmax=69 / qpstep=4 / cplxblur=20.0 / qblur=0.5 / vbv_maxrate=62500 / vbv_bufsize=78125 / nal_hrd=none / filler=0 / ip_ratio=1.40 / aq=1:0.50
  25. Default                                  : Yes
  26. Forced                                   : No

  27. Audio
  28. ID                                       : 2
  29. Format                                   : AC-3
  30. Format/Info                              : Audio Coding 3
  31. Codec ID                                 : A_AC3
  32. Duration                                 : 1 h 59 min
  33. Bit rate mode                            : Constant
  34. Bit rate                                 : 448 kb/s
  35. Channel(s)                               : 6 channels
  36. Channel positions                        : Front: L C R, Side: L R, LFE
  37. Sampling rate                            : 48.0 kHz
  38. Frame rate                               : 31.250 FPS (1536 SPF)
  39. Bit depth                                : 16 bits
  40. Compression mode                         : Lossy
  41. Stream size                              : 384 MiB (5%)
  42. Language                                 : English
  43. Service kind                             : Complete Main
  44. Default                                  : Yes
  45. Forced                                   : No

  46. Menu
  47. 00:00:00.000                             : en:00:00:00.000
  48. 00:09:20.560                             : en:00:09:20.560
  49. 00:16:15.975                             : en:00:16:15.975
  50. 00:25:34.533                             : en:00:25:34.533
  51. 00:37:13.231                             : en:00:37:13.231
  52. 00:47:05.823                             : en:00:47:05.823
  53. 00:54:20.257                             : en:00:54:20.257
  54. 01:10:07.203                             : en:01:10:07.203
  55. 01:18:12.688                             : en:01:18:12.688
  56. 01:32:04.519                             : en:01:32:04.519
  57. 01:44:48.282                             : en:01:44:48.282
  58. 01:55:27.921                             : en:01:55:27.921
复制代码

复制代码

拨开迷雾:山达基教与信仰囚笼/解密山达基 Going.Clear.Scientology.and.the.Prison.of.Belief.2015.1080p.BluRay.x264-BRMP 7.65GB-2.png 拨开迷雾:山达基教与信仰囚笼/解密山达基 Going.Clear.Scientology.and.the.Prison.of.Belief.2015.1080p.BluRay.x264-BRMP 7.65GB-3.png 拨开迷雾:山达基教与信仰囚笼/解密山达基 Going.Clear.Scientology.and.the.Prison.of.Belief.2015.1080p.BluRay.x264-BRMP 7.65GB-4.png







回复

使用道具 举报

懒得打字嘛,点击右侧快捷回复 【右侧内容,后台自定义】
您需要登录后才可以回帖 登录 | 立即加入

本版积分规则

Archiver|小黑屋| 蓝光电影网 |网站地图

Copyright © 2021 Comsenz Inc. Powered by 蓝光电影网

蓝光电影网

本站内容由用户自主分享和转载自互联网,转载目的在于传递更多信息,并不代表本网赞同其观点和对其真实性负责。

如有侵权、违反国家法律政策行为,请联系我们,我们会第一时间及时清除和处理!

举报反馈邮箱:[email protected]

快速回复 返回顶部 返回列表