找回密码

蓝光电影网

查看: 800|回复: 3

[爱情] 西伯利亚 Siberia.2018.1080p.BluRay.x264-ROVERS 7.65GB

[复制链接]
蓝光币
623
发表于 2018-9-12 11:01:23 | 显示全部楼层 |阅读模式

西伯利亚 Siberia.2018.1080p.BluRay.x264-ROVERS 7.65GB-1.jpg
◎译  名 西伯利亚
◎片  名 Siberia
◎年  代 2018
◎产  地 美国
◎类  别 恋爱/犯罪/惊悚
◎语  言 英语/俄语
◎上映日期 2018-07-13(美国)
◎豆瓣评分 4.5/10 from 1,196 users
◎豆瓣链接 https://movie.douban.com/subject/26972130/
◎片  长 104分钟
◎导  演 Matthew M. Ross
◎主  演 基努·里维斯 Keanu Reeves
      维罗尼卡·费瑞尔 Veronica Ferres
      帕沙·D.林奇尼科夫 Pasha D. Lychnikoff
      达伦·罗斯 Darren Ross
      詹姆斯·亚历山大 James Alexander
      安娜·乌拉鲁 Ana Ularu
      阿莱克斯·潘诺维奇 Aleks Paunovic
      莫利·林沃德 Molly Ringwald
      纳扎利·德姆克维奇 Nazariy Demkowicz
      布拉德利·索茨基 Bradley Sawatzky
      尤金·里皮斯基 Eugene Lipinski
      维塔利·马卡罗夫 Vitali Makarov

◎简  介

  故事报告美国钻石商卢卡斯(基努饰)去西伯利亚做买卖时,与咖啡馆店东卡佳(安娜·乌拉鲁饰)坠入情网,但是局势却步入危险。

  1. Video
  2. ID                                       : 1
  3. Format                                   : AVC
  4. Format/Info                              : Advanced Video Codec
  5. Format profile                           : [url=/cdn-cgi/l/email-protection][email protected][/url]
  6. Format settings                          : CABAC / 5 Ref Frames
  7. Format settings, CABAC                   : Yes
  8. Format settings, RefFrames               : 5 frames
  9. Codec ID                                 : V_MPEG4/ISO/AVC
  10. Duration                                 : 1 h 44 min
  11. Bit rate                                 : 8 951 kb/s
  12. Width                                    : 1 920 pixels
  13. Height                                   : 808 pixels
  14. Display aspect ratio                     : 2.40:1
  15. Frame rate mode                          : Constant
  16. Frame rate                               : 23.976 (24000/1001) FPS
  17. Color space                              : YUV
  18. Chroma subsampling                       : 4:2:0
  19. Bit depth                                : 8 bits
  20. Scan type                                : Progressive
  21. Bits/(Pixel*Frame)                       : 0.241
  22. Stream size                              : 6.54 GiB (86%)
  23. Writing library                          : x264 core 157 r2932 303c484
  24. Encoding settings                        : cabac=1 / ref=5 / deblock=1:-3:-3 / analyse=0x3:0x113 / me=umh / subme=8 / psy=1 / psy_rd=1.00:0.00 / mixed_ref=1 / me_range=16 / chroma_me=1 / trellis=1 / 8x8dct=1 / cqm=0 / deadzone=21,11 / fast_pskip=1 / chroma_qp_offset=-2 / threads=24 / lookahead_threads=4 / sliced_threads=0 / nr=0 / decimate=1 / interlaced=0 / bluray_compat=0 / constrained_intra=0 / bframes=3 / b_pyramid=2 / b_adapt=1 / b_bias=0 / direct=3 / weightb=1 / open_gop=0 / weightp=2 / keyint=250 / keyint_min=23 / scenecut=40 / intra_refresh=0 / rc_lookahead=50 / rc=2pass / mbtree=1 / bitrate=8951 / ratetol=1.0 / qcomp=0.60 / qpmin=0 / qpmax=69 / qpstep=4 / cplxblur=20.0 / qblur=0.5 / ip_ratio=1.40 / aq=1:1.00
  25. Language                                 : English
  26. Default                                  : Yes
  27. Forced                                   : No

  28. Audio
  29. ID                                       : 2
  30. Format                                   : DTS
  31. Format/Info                              : Digital Theater Systems
  32. Mode                                     : 16
  33. Format settings, Endianness              : Big
  34. Codec ID                                 : A_DTS
  35. Duration                                 : 1 h 44 min
  36. Bit rate mode                            : Constant
  37. Bit rate                                 : 1 509 kb/s
  38. Channel(s)                               : 6 channels
  39. Channel positions                        : Front: L C R, Side: L R, LFE
  40. Sampling rate                            : 48.0 kHz
  41. Frame rate                               : 93.750 FPS (512 SPF)
  42. Bit depth                                : 24 bits
  43. Compression mode                         : Lossy
  44. Stream size                              : 1.10 GiB (14%)
  45. Language                                 : English
  46. Default                                  : Yes
  47. Forced                                   : No
复制代码

复制代码

西伯利亚 Siberia.2018.1080p.BluRay.x264-ROVERS 7.65GB-2.jpg






回复

使用道具 举报

蓝光币
1822
发表于 2020-10-18 23:01:46 | 显示全部楼层
谢谢楼主分享
回复 支持 反对

使用道具 举报

懒得打字嘛,点击右侧快捷回复 【右侧内容,后台自定义】
您需要登录后才可以回帖 登录 | 立即加入

本版积分规则

Archiver|小黑屋| 蓝光电影网 |网站地图

Copyright © 2021 Comsenz Inc. Powered by 蓝光电影网

蓝光电影网

本站内容由用户自主分享和转载自互联网,转载目的在于传递更多信息,并不代表本网赞同其观点和对其真实性负责。

如有侵权、违反国家法律政策行为,请联系我们,我们会第一时间及时清除和处理!

举报反馈邮箱:[email protected]

快速回复 返回顶部 返回列表