找回密码

蓝光电影网

查看: 1353|回复: 1

[犯罪] 陷阱边缘/追寻铁证 Physical.Evidence.1989.1080p.BluRay.x264-MELiTE 6.55GB

[复制链接]
蓝光币
623
发表于 2018-9-12 11:01:59 | 显示全部楼层 |阅读模式

圈套边沿/追随铁证 Physical.Evidence.1989.1080p.BluRay.x264-MELiTE 6.55GB-1.jpg
◎译  名 圈套边沿/追随铁证/纽约大风暴/圈套
◎片  名 Physical Evidence
◎年  代 1989
◎产  地 美国
◎类  别 犯罪/惊悚
◎语  言 英语
◎上映日期 1989-01-27
◎豆瓣评分 /10 from 0 users
◎豆瓣链接 https://movie.douban.com/subject/1296421/
◎片  长 99 分钟
◎导  演 迈克尔·克莱顿 Michael Crichton
◎主  演 伯特·雷诺兹 Burt Reynolds
      泰莉莎·拉塞尔 Theresa Russell
      尼德·巴蒂 Ned Beatty
      凯伊·兰兹 Kay Lenz
      特德·麦金利 Ted McGinley
      汤姆·奥布莱恩 Tom O'Brien
      肯尼斯·威尔什 Kenneth Welsh
      雷·贝克 Ray Baker
      Ken James
      Michael P. Moran
      Angelo Rizacos
      Lamar Jackson
      Paul Hubbard
      Larry Reynolds
      彼得·麦克内尔 Peter MacNeill

◎简  介

  None

  1. Video
  2. ID                                       : 1
  3. Format                                   : AVC
  4. Format/Info                              : Advanced Video Codec
  5. Format profile                           : [url=/cdn-cgi/l/email-protection][email protected][/url]
  6. Format settings                          : CABAC / 4 Ref Frames
  7. Format settings, CABAC                   : Yes
  8. Format settings, ReFrames                : 4 frames
  9. Codec ID                                 : V_MPEG4/ISO/AVC
  10. Duration                                 : 1 h 39 min
  11. Bit rate                                 : 8 806 kb/s
  12. Width                                    : 1 920 pixels
  13. Height                                   : 1 080 pixels
  14. Display aspect ratio                     : 16:9
  15. Frame rate mode                          : Constant
  16. Frame rate                               : 23.976 (24000/1001) FPS
  17. Color space                              : YUV
  18. Chroma subsampling                       : 4:2:0
  19. Bit depth                                : 8 bits
  20. Scan type                                : Progressive
  21. Bits/(Pixel*Frame)                       : 0.177
  22. Stream size                              : 5.98 GiB (91%)
  23. Writing library                          : x264 core 140 r2377 1ca7bb9
  24. Encoding settings                        : cabac=1 / ref=4 / deblock=1:0:0 / analyse=0x3:0x113 / me=umh / subme=8 / psy=1 / psy_rd=1.00:0.00 / mixed_ref=1 / me_range=16 / chroma_me=1 / trellis=1 / 8x8dct=1 / cqm=0 / deadzone=21,11 / fast_pskip=0 / chroma_qp_offset=-2 / threads=6 / lookahead_threads=1 / sliced_threads=0 / nr=0 / decimate=1 / interlaced=0 / bluray_compat=0 / constrained_intra=0 / bframes=3 / b_pyramid=2 / b_adapt=2 / b_bias=0 / direct=3 / weightb=1 / open_gop=0 / weightp=2 / keyint=250 / keyint_min=23 / scenecut=40 / intra_refresh=0 / rc_lookahead=50 / rc=2pass / mbtree=1 / bitrate=8806 / ratetol=1.0 / qcomp=0.60 / qpmin=0 / qpmax=69 / qpstep=4 / cplxblur=20.0 / qblur=0.5 / ip_ratio=1.40 / aq=1:1.00
  25. Default                                  : Yes
  26. Forced                                   : No

  27. Audio
  28. ID                                       : 2
  29. Format                                   : AC-3
  30. Format/Info                              : Audio Coding 3
  31. Codec ID                                 : A_AC3
  32. Duration                                 : 1 h 39 min
  33. Bit rate mode                            : Constant
  34. Bit rate                                 : 640 kb/s
  35. Channel(s)                               : 2 channels
  36. Channel positions                        : Front: L R
  37. Sampling rate                            : 48.0 kHz
  38. Frame rate                               : 31.250 FPS (1536 SPF)
  39. Bit depth                                : 16 bits
  40. Compression mode                         : Lossy
  41. Stream size                              : 455 MiB (7%)
  42. Language                                 : English
  43. Service kind                             : Complete Main
  44. Default                                  : Yes
  45. Forced                                   : No
复制代码

复制代码

圈套边沿/追随铁证 Physical.Evidence.1989.1080p.BluRay.x264-MELiTE 6.55GB-2.png 圈套边沿/追随铁证 Physical.Evidence.1989.1080p.BluRay.x264-MELiTE 6.55GB-3.png 圈套边沿/追随铁证 Physical.Evidence.1989.1080p.BluRay.x264-MELiTE 6.55GB-4.png







回复

使用道具 举报

懒得打字嘛,点击右侧快捷回复 【右侧内容,后台自定义】
您需要登录后才可以回帖 登录 | 立即加入

本版积分规则

Archiver|小黑屋| 蓝光电影网 |网站地图

Copyright © 2021 Comsenz Inc. Powered by 蓝光电影网

蓝光电影网

本站内容由用户自主分享和转载自互联网,转载目的在于传递更多信息,并不代表本网赞同其观点和对其真实性负责。

如有侵权、违反国家法律政策行为,请联系我们,我们会第一时间及时清除和处理!

举报反馈邮箱:[email protected]

快速回复 返回顶部 返回列表