找回密码

蓝光电影网

查看: 842|回复: 1

[动画] 古惑狗天师/天堂狗历险记 All.Dogs.Go.To.Heaven.1989.1080p.BluRay.x264-HALCYON 5.46GB

[复制链接]
蓝光币
623
发表于 2018-9-12 11:04:20 | 显示全部楼层 |阅读模式

古惑狗天师/天堂狗历险记 All.Dogs.Go.To.Heaven.1989.1080p.BluRay.x264-HALCYON 5.46GB-1.jpg
◎译  名 古惑狗天师/天堂狗历险记/欢畅仙人狗/一切狗上天堂/一切的狗上天堂
◎片  名 All Dogs Go to Heaven
◎年  代 1989
◎产  地 爱尔兰/英国/美国
◎类  别 动画/行动/冒险/笑剧/剧情/家庭/奇异/歌舞
◎语  言 英语
◎上映日期 1989-11-17
◎豆瓣评分 7.9/10 from 91 users
◎豆瓣链接 https://movie.douban.com/subject/1295988/
◎片  长 89 分钟
◎导  演 Dan Kuenster / 唐·布鲁斯 Don Bluth / 加里·戈德曼 Gary Goldman
◎主  演 伯特·雷诺兹 Burt Reynolds
      多姆·德路易斯 Dom DeLuise
      朱迪丝·芭西 Judith Barsi

◎简  介

  When a casino owning dog named Charlie is murdered by his rival Carface, he finds himself in Heaven basically by default since all dogs go to heaven. However, since he wants to get back at his killer, he cons his way back to the living with the warning that doing that damns him to Hell. Once back, he teams with his old partner, Itchy to prep his retaliation. He also stumbles on to an orphan girl who can talk to the animals, thus allowing him to get the inside info on the races to ensure his wins

  1. Video
  2. ID                                       : 1
  3. Format                                   : AVC
  4. Format/Info                              : Advanced Video Codec
  5. Format profile                           : [url=/cdn-cgi/l/email-protection][email protected][/url]
  6. Format settings                          : CABAC / 4 Ref Frames
  7. Format settings, CABAC                   : Yes
  8. Format settings, ReFrames                : 4 frames
  9. Codec ID                                 : V_MPEG4/ISO/AVC
  10. Duration                                 : 1 h 24 min
  11. Bit rate                                 : 7 727 kb/s
  12. Width                                    : 1 920 pixels
  13. Height                                   : 1 040 pixels
  14. Display aspect ratio                     : 1.85:1
  15. Frame rate mode                          : Constant
  16. Frame rate                               : 23.976 FPS
  17. Color space                              : YUV
  18. Chroma subsampling                       : 4:2:0
  19. Bit depth                                : 8 bits
  20. Scan type                                : Progressive
  21. Bits/(Pixel*Frame)                       : 0.161
  22. Stream size                              : 4.46 GiB (82%)
  23. Writing library                          : x264 core 114 r1913 5fd3dce
  24. Encoding settings                        : cabac=1 / ref=4 / deblock=1:0:0 / analyse=0x3:0x133 / me=umh / subme=8 / psy=1 / psy_rd=1.00:0.00 / mixed_ref=1 / me_range=16 / chroma_me=1 / trellis=1 / 8x8dct=1 / cqm=0 / deadzone=21,11 / fast_pskip=0 / chroma_qp_offset=-2 / threads=12 / sliced_threads=0 / nr=0 / decimate=1 / interlaced=0 / constrained_intra=0 / bframes=3 / b_pyramid=2 / b_adapt=1 / b_bias=0 / direct=1 / weightb=1 / open_gop=0 / weightp=2 / keyint=240 / keyint_min=24 / scenecut=40 / intra_refresh=0 / rc_lookahead=40 / rc=2pass / mbtree=1 / bitrate=7727 / ratetol=1.0 / qcomp=0.60 / qpmin=0 / qpmax=69 / qpstep=4 / cplxblur=20.0 / qblur=0.5 / ip_ratio=1.40 / aq=1:1.00
  25. Language                                 : English
  26. Default                                  : Yes
  27. Forced                                   : No

  28. Audio
  29. ID                                       : 2
  30. Format                                   : DTS
  31. Format/Info                              : Digital Theater Systems
  32. Muxing mode                              : Header stripping
  33. Codec ID                                 : A_DTS
  34. Duration                                 : 1 h 24 min
  35. Bit rate mode                            : Constant
  36. Bit rate                                 : 1 509 kb/s
  37. Channel(s)                               : 2 channels
  38. Channel positions                        : Front: L R
  39. Sampling rate                            : 48.0 kHz
  40. Frame rate                               : 93.750 FPS (512 SPF)
  41. Bit depth                                : 24 bits
  42. Compression mode                         : Lossy
  43. Stream size                              : 913 MiB (16%)
  44. Language                                 : English
  45. Default                                  : Yes
  46. Forced                                   : No
复制代码

复制代码

古惑狗天师/天堂狗历险记 All.Dogs.Go.To.Heaven.1989.1080p.BluRay.x264-HALCYON 5.46GB-2.png 古惑狗天师/天堂狗历险记 All.Dogs.Go.To.Heaven.1989.1080p.BluRay.x264-HALCYON 5.46GB-3.png 古惑狗天师/天堂狗历险记 All.Dogs.Go.To.Heaven.1989.1080p.BluRay.x264-HALCYON 5.46GB-4.png







回复

使用道具 举报

懒得打字嘛,点击右侧快捷回复 【右侧内容,后台自定义】
您需要登录后才可以回帖 登录 | 立即加入

本版积分规则

Archiver|小黑屋| 蓝光电影网 |网站地图

Copyright © 2021 Comsenz Inc. Powered by 蓝光电影网

蓝光电影网

本站内容由用户自主分享和转载自互联网,转载目的在于传递更多信息,并不代表本网赞同其观点和对其真实性负责。

如有侵权、违反国家法律政策行为,请联系我们,我们会第一时间及时清除和处理!

举报反馈邮箱:[email protected]

快速回复 返回顶部 返回列表