找回密码

蓝光电影网

查看: 1942|回复: 3

[恐怖] 食人鱼2:繁殖/水虎鱼 2 Piranha.II.The.Spawning.1981.1080p.BluRay.x264-PSYCHD 9.84GB

[复制链接]
蓝光币
623
发表于 2018-9-12 11:09:32 | 显示全部楼层 |阅读模式

食人鱼2:滋生/水虎鱼 2 Piranha.II.The.Spawning.1981.1080p.BluRay.x264-PSYCHD 9.84GB-1.jpg
◎译  名 食人鱼2:滋生/水虎鱼 2/食人鱼2 滋生
◎片  名 Piranha Part Two: The Spawning
◎年  代 1981
◎产  地 美国/意大利
◎类  别 剧情/可骇/恋爱/科幻
◎语  言 英语
◎上映日期 1982-10-17
◎豆瓣评分 5.3/10 from 541 users
◎豆瓣链接 https://movie.douban.com/subject/1295543/
◎片  长 84 分钟/USA: 94 分钟(extended version)
◎导  演 詹姆斯·卡梅隆 James Cameron / Ovidio G. Assonitis
◎主  演 Tricia O'Neil
      兰斯·亨利克森 Lance Henriksen
      Ricky Paull Goldin
      Leslie Graves
      Carole Davis
      Albert Sanders
      Aston S. Young
      小基德·布鲁尔 Captain Kidd Brewer Jr.

◎简  介

  克里斯(Ricky Paull Goldin 饰)的好友遭到了不明物种的进犯古怪灭亡,这场悲剧吸引了克里斯的母亲安妮(崔西亚·奥尼尔 Tricia O'Neil 饰)的留意,她感觉这全部事务都非常可疑,但是除了她之外并没有人这么以为。安妮找到了研讨生化学的博士泰勒(Steve Marachuk 饰),向他追求帮助,经过两人的重重观察,一群长着同党,嗜血而又残暴的变种鱼渐渐浮出了水面。
  一年一度的炸鱼庆典行将在海滩上举行,来加入的人们无不兴趣勃勃,跃跃欲试。安妮找到了活动的主办方,希望他们可以取消庆典,以保证公众的平安,但自擅自利的主办方明显没有将安妮的话当做一回事。一场悲剧眼看着就要拉开序幕。

  1. Video
  2. ID                                       : 1
  3. Format                                   : AVC
  4. Format/Info                              : Advanced Video Codec
  5. Format profile                           : [url=/cdn-cgi/l/email-protection][email protected][/url]
  6. Format settings                          : CABAC / 4 Ref Frames
  7. Format settings, CABAC                   : Yes
  8. Format settings, RefFrames               : 4 frames
  9. Codec ID                                 : V_MPEG4/ISO/AVC
  10. Duration                                 : 1 h 34 min
  11. Bit rate                                 : 13.4 Mb/s
  12. Width                                    : 1 920 pixels
  13. Height                                   : 1 040 pixels
  14. Display aspect ratio                     : 1.85:1
  15. Frame rate mode                          : Constant
  16. Frame rate                               : 23.976 (24000/1001) FPS
  17. Color space                              : YUV
  18. Chroma subsampling                       : 4:2:0
  19. Bit depth                                : 8 bits
  20. Scan type                                : Progressive
  21. Bits/(Pixel*Frame)                       : 0.279
  22. Stream size                              : 8.64 GiB (88%)
  23. Writing library                          : x264 core 157 r2932 303c484
  24. Encoding settings                        : cabac=1 / ref=4 / deblock=1:-3:-3 / analyse=0x3:0x113 / me=umh / subme=8 / psy=1 / psy_rd=1.10:0.00 / mixed_ref=1 / me_range=32 / chroma_me=1 / trellis=2 / 8x8dct=1 / cqm=0 / deadzone=21,11 / fast_pskip=1 / chroma_qp_offset=-2 / threads=32 / lookahead_threads=5 / sliced_threads=0 / nr=0 / decimate=1 / interlaced=0 / bluray_compat=0 / constrained_intra=0 / bframes=3 / b_pyramid=2 / b_adapt=2 / b_bias=0 / direct=3 / weightb=1 / open_gop=0 / weightp=2 / keyint=240 / keyint_min=24 / scenecut=40 / intra_refresh=0 / rc_lookahead=50 / rc=2pass / mbtree=1 / bitrate=13372 / ratetol=1.0 / qcomp=0.60 / qpmin=0 / qpmax=69 / qpstep=4 / cplxblur=20.0 / qblur=0.5 / ip_ratio=1.40 / aq=3:0.75
  25. Default                                  : Yes
  26. Forced                                   : No
  27. Statistics Tags Issue                    : no_variable_data 1970-01-01 00:00:00 / no_variable_data 2010-02-22 21:41:29
  28. FromStats_BitRate                        : 13370678
  29. FromStats_Duration                       : 01:34:38.215000000
  30. FromStats_FrameCount                     : 136141
  31. FromStats_StreamSize                     : 9490198161

  32. Audio
  33. ID                                       : 2
  34. Format                                   : DTS
  35. Format/Info                              : Digital Theater Systems
  36. Mode                                     : 16
  37. Format settings, Endianness              : Big
  38. Codec ID                                 : A_DTS
  39. Duration                                 : 1 h 34 min
  40. Bit rate mode                            : Constant
  41. Bit rate                                 : 1 509 kb/s
  42. Channel(s)                               : 2 channels
  43. Channel positions                        : Front: L R
  44. Sampling rate                            : 48.0 kHz
  45. Frame rate                               : 93.750 FPS (512 SPF)
  46. Bit depth                                : 24 bits
  47. Compression mode                         : Lossy
  48. Stream size                              : 1 022 MiB (10%)
  49. Language                                 : English
  50. Default                                  : Yes
  51. Forced                                   : No
  52. Statistics Tags Issue                    : no_variable_data 1970-01-01 00:00:00 / no_variable_data 2010-02-22 21:41:29
  53. FromStats_BitRate                        : 1508999
  54. FromStats_Duration                       : 01:34:39.030000000
  55. FromStats_FrameCount                     : 532409
  56. FromStats_StreamSize                     : 1071206908

  57. Text #1
  58. ID                                       : 3
  59. Format                                   : UTF-8
  60. Codec ID                                 : S_TEXT/UTF8
  61. Codec ID/Info                            : UTF-8 Plain Text
  62. Language                                 : English
  63. Default                                  : No
  64. Forced                                   : No
  65. Statistics Tags Issue                    : no_variable_data 1970-01-01 00:00:00 / no_variable_data 2010-02-22 21:41:29
  66. FromStats_BitRate                        : 43
  67. FromStats_Duration                       : 01:31:17.514000000
  68. FromStats_FrameCount                     : 1098
  69. FromStats_StreamSize                     : 29784

  70. Text #2
  71. ID                                       : 4
  72. Format                                   : UTF-8
  73. Codec ID                                 : S_TEXT/UTF8
  74. Codec ID/Info                            : UTF-8 Plain Text
  75. Title                                    : SDH
  76. Language                                 : English
  77. Default                                  : No
  78. Forced                                   : No
  79. Statistics Tags Issue                    : no_variable_data 1970-01-01 00:00:00 / no_variable_data 2010-02-22 21:41:29
  80. FromStats_BitRate                        : 48
  81. FromStats_Duration                       : 01:32:04.936000000
  82. FromStats_FrameCount                     : 1304
  83. FromStats_StreamSize                     : 33839

  84. Menu
  85. 00:00:00.000                             : en:00:00:00.000
  86. 00:06:28.471                             : en:00:06:28.471
  87. 00:14:21.694                             : en:00:14:21.694
  88. 00:22:14.333                             : en:00:22:14.333
  89. 00:29:40.779                             : en:00:29:40.779
  90. 00:40:48.655                             : en:00:40:48.655
  91. 00:47:14.749                             : en:00:47:14.749
  92. 00:56:17.165                             : en:00:56:17.165
  93. 01:04:13.224                             : en:01:04:13.224
  94. 01:11:39.420                             : en:01:11:39.420
  95. 01:19:47.324                             : en:01:19:47.324
  96. 01:32:02.434                             : en:01:32:02.434
复制代码

复制代码

食人鱼2:滋生/水虎鱼 2 Piranha.II.The.Spawning.1981.1080p.BluRay.x264-PSYCHD 9.84GB-2.jpg






回复

使用道具 举报

懒得打字嘛,点击右侧快捷回复 【右侧内容,后台自定义】
您需要登录后才可以回帖 登录 | 立即加入

本版积分规则

Archiver|小黑屋| 蓝光电影网 |网站地图

Copyright © 2021 Comsenz Inc. Powered by 蓝光电影网

蓝光电影网

本站内容由用户自主分享和转载自互联网,转载目的在于传递更多信息,并不代表本网赞同其观点和对其真实性负责。

如有侵权、违反国家法律政策行为,请联系我们,我们会第一时间及时清除和处理!

举报反馈邮箱:[email protected]

快速回复 返回顶部 返回列表