找回密码

蓝光电影网

查看: 1029|回复: 2

[剧情] 战云/战地尤物 Never.So.Few.1959.1080p.BluRay.x264-SADPANDA 12.03GB

[复制链接]
蓝光币
623
发表于 2018-9-12 11:13:07 | 显示全部楼层 |阅读模式

战云/战地美人 Never.So.Few.1959.1080p.BluRay.x264-SADPANDA 12.03GB-1.jpg
◎译  名 战云/战地美人
◎片  名 Never So Few
◎年  代 1959
◎产  地 美国
◎类  别 剧情/战争
◎语  言 英语
◎上映日期 1959-12-07
◎豆瓣评分 /10 from 0 users
◎豆瓣链接 https://movie.douban.com/subject/1305174/
◎片  长 125 分钟
◎导  演 约翰·斯特奇斯 John Sturges
◎主  演 弗兰克·辛纳特拉 Frank Sinatra
      史蒂夫·麦奎因 Steve McQueen
      吉娜·劳洛勃丽吉达 Gina Lollobrigida

◎简  介

  改编自英国作家Tom Chammales(1924~1960)在1957年颁发的小说,论述二战时代美军和英军游击队在缅甸北部和日军作战的故事,前半段重点报告美日战争,以及Frank Sinatra 搭上巨贾Paul Henraid的情妇Gina Lollobrigida的故事,到了后半段主体逐步转向1959年的百姓政府。在联军突袭日军后,回程发现后勤职员惨遭杀戮,补给物资遭到掠取...

  1. Video
  2. ID                                       : 1
  3. Format                                   : AVC
  4. Format/Info                              : Advanced Video Codec
  5. Format profile                           : [url=/cdn-cgi/l/email-protection][email protected][/url]
  6. Format settings                          : CABAC / 5 Ref Frames
  7. Format settings, CABAC                   : Yes
  8. Format settings, RefFrames               : 5 frames
  9. Codec ID                                 : V_MPEG4/ISO/AVC
  10. Duration                                 : 2 h 4 min
  11. Bit rate                                 : 12.3 Mb/s
  12. Width                                    : 1 920 pixels
  13. Height                                   : 800 pixels
  14. Display aspect ratio                     : 2.40:1
  15. Frame rate mode                          : Constant
  16. Frame rate                               : 23.976 (24000/1001) FPS
  17. Color space                              : YUV
  18. Chroma subsampling                       : 4:2:0
  19. Bit depth                                : 8 bits
  20. Scan type                                : Progressive
  21. Bits/(Pixel*Frame)                       : 0.335
  22. Stream size                              : 10.7 GiB (89%)
  23. Writing library                          : x264 core 155 r2901 7d0ff22
  24. Encoding settings                        : cabac=1 / ref=5 / deblock=1:-3:-3 / analyse=0x3:0x113 / me=umh / subme=8 / psy=1 / psy_rd=1.00:0.25 / mixed_ref=1 / me_range=24 / chroma_me=1 / trellis=1 / 8x8dct=1 / cqm=0 / deadzone=21,11 / fast_pskip=1 / chroma_qp_offset=-4 / threads=25 / lookahead_threads=4 / sliced_threads=0 / nr=0 / decimate=1 / interlaced=0 / bluray_compat=0 / constrained_intra=0 / bframes=3 / b_pyramid=2 / b_adapt=1 / b_bias=0 / direct=3 / weightb=1 / open_gop=0 / weightp=2 / keyint=240 / keyint_min=24 / scenecut=40 / intra_refresh=0 / rc_lookahead=50 / rc=2pass / mbtree=1 / bitrate=12319 / ratetol=1.0 / qcomp=0.60 / qpmin=0 / qpmax=69 / qpstep=4 / cplxblur=20.0 / qblur=0.5 / ip_ratio=1.40 / aq=1:0.75
  25. Default                                  : Yes
  26. Forced                                   : No

  27. Audio
  28. ID                                       : 2
  29. Format                                   : DTS
  30. Format/Info                              : Digital Theater Systems
  31. Mode                                     : 16
  32. Format settings, Endianness              : Big
  33. Codec ID                                 : A_DTS
  34. Duration                                 : 2 h 4 min
  35. Bit rate mode                            : Constant
  36. Bit rate                                 : 1 509 kb/s
  37. Channel(s)                               : 6 channels
  38. Channel positions                        : Front: L C R, Side: L R, LFE
  39. Sampling rate                            : 48.0 kHz
  40. Frame rate                               : 93.750 FPS (512 SPF)
  41. Bit depth                                : 24 bits
  42. Compression mode                         : Lossy
  43. Stream size                              : 1.31 GiB (11%)
  44. Language                                 : English
  45. Default                                  : Yes
  46. Forced                                   : No

  47. Menu
  48. 00:00:00.000                             : en:00:00:00.000
  49. 00:02:08.545                             : en:00:02:08.545
  50. 00:08:01.981                             : en:00:08:01.981
  51. 00:13:38.776                             : en:00:13:38.776
  52. 00:17:49.610                             : en:00:17:49.610
  53. 00:22:41.986                             : en:00:22:41.986
  54. 00:28:41.386                             : en:00:28:41.386
  55. 00:31:39.231                             : en:00:31:39.231
  56. 00:36:18.760                             : en:00:36:18.760
  57. 00:41:21.270                             : en:00:41:21.270
  58. 00:46:04.637                             : en:00:46:04.637
  59. 00:50:06.420                             : en:00:50:06.420
  60. 00:54:57.669                             : en:00:54:57.669
  61. 00:59:06.793                             : en:00:59:06.793
  62. 01:02:20.111                             : en:01:02:20.111
  63. 01:05:40.353                             : en:01:05:40.353
  64. 01:11:08.806                             : en:01:11:08.806
  65. 01:15:25.646                             : en:01:15:25.646
  66. 01:18:32.833                             : en:01:18:32.833
  67. 01:21:17.790                             : en:01:21:17.790
  68. 01:25:21.158                             : en:01:25:21.158
  69. 01:29:40.584                             : en:01:29:40.584
  70. 01:33:56.548                             : en:01:33:56.548
  71. 01:40:24.852                             : en:01:40:24.852
  72. 01:45:02.505                             : en:01:45:02.505
  73. 01:49:56.548                             : en:01:49:56.548
  74. 01:54:45.712                             : en:01:54:45.712
  75. 01:57:38.009                             : en:01:57:38.009
  76. 02:01:23.026                             : en:02:01:23.026
复制代码

复制代码

战云/战地美人 Never.So.Few.1959.1080p.BluRay.x264-SADPANDA 12.03GB-2.jpg






回复

使用道具 举报

懒得打字嘛,点击右侧快捷回复 【右侧内容,后台自定义】
您需要登录后才可以回帖 登录 | 立即加入

本版积分规则

Archiver|小黑屋| 蓝光电影网 |网站地图

Copyright © 2021 Comsenz Inc. Powered by 蓝光电影网

蓝光电影网

本站内容由用户自主分享和转载自互联网,转载目的在于传递更多信息,并不代表本网赞同其观点和对其真实性负责。

如有侵权、违反国家法律政策行为,请联系我们,我们会第一时间及时清除和处理!

举报反馈邮箱:[email protected]

快速回复 返回顶部 返回列表