找回密码

蓝光电影网

查看: 1237|回复: 2

[爱情] 我的戈弗雷/我的高德弗里 My.Man.Godfrey.1936.1080p.BluRay.x264-SiNNERS 8.75GB

[复制链接]
蓝光币
623
发表于 2018-9-12 11:33:10 | 显示全部楼层 |阅读模式

我的戈弗雷/我的高德弗里 My.Man.Godfrey.1936.1080p.BluRay.x264-SiNNERS 8.75GB-1.jpg
◎译  名 我的戈弗雷/我的高德弗里/妙管家
◎片  名 My Man Godfrey
◎年  代 1936
◎产  地 美国
◎类  别 恋爱/笑剧
◎语  言 英语
◎上映日期 1936-09-17
◎豆瓣评分 7.7/10 from 716 users
◎豆瓣链接 https://movie.douban.com/subject/1300241/
◎片  长 94分钟/USA: 90 分钟(2005 DVD release)
◎导  演 格雷戈里·拉·卡瓦 Gregory La Cava
◎主  演 威廉·鲍威尔 William Powell
      卡洛·朗白 Carole Lombard
      艾丽丝·布雷迪 Alice Brady
      吉尔·帕特里克 Gail Patrick
      尤金·佩里特 Eugene Pallette

◎简  介

  《我的高德弗里》由一处破败的渣滓场起头,尖锐地嘲笑了贵族们无聊透顶的“狩猎”游戏,同时也把平民化的男配角高非里带进了一个风趣但完全颓丧的布尔乔亚家庭。那边布满了对峙,姐姐厌恶他,想方想法地谗谄他;而妹妹善良正直,恰恰对这位穷管家心有独衷。实在这位管家结业于名牌高校,他用仆人家的钱偷偷投资,终极使得这个家庭免于破产,而且为流浪汉修建了一个“渣滓场”俱乐部。固然,美人入怀也是必不成少的。男配角威廉·鲍威尔仪态儒雅,凭仗侦察笑剧《瘦人》系列蜚声好莱坞;妹妹饰演者卡罗尔·隆巴德更是美国少有的天赋笑剧演员,她嫁给盖博,并于1942年出演了刘别谦的反战名作《生死题目》。惋惜,该片尚未公映,隆巴德不幸在拉斯维加斯坠机身亡。

◎获奖情况

  第9届奥斯卡金像奖  (1937)
  最好导演(提名) 格雷戈里·拉·卡瓦
  最好男配角(提名) 威廉·鲍威尔
  最好女配角(提名) 卡洛·朗白
  最好男配角(提名) 米沙·奥尔
  最好女配角(提名) 艾丽丝·布雷迪
  最好编剧(提名) 埃里克·哈奇 / 莫里·里斯金德

  1. Video
  2. ID                                       : 1
  3. Format                                   : AVC
  4. Format/Info                              : Advanced Video Codec
  5. Format profile                           : [url=/cdn-cgi/l/email-protection][email protected][/url]
  6. Format settings                          : CABAC / 5 Ref Frames
  7. Format settings, CABAC                   : Yes
  8. Format settings, RefFrames               : 5 frames
  9. Codec ID                                 : V_MPEG4/ISO/AVC
  10. Duration                                 : 1 h 33 min
  11. Bit rate                                 : 12.8 Mb/s
  12. Width                                    : 1 440 pixels
  13. Height                                   : 1 080 pixels
  14. Display aspect ratio                     : 4:3
  15. Frame rate mode                          : Constant
  16. Frame rate                               : 23.976 (24000/1001) FPS
  17. Color space                              : YUV
  18. Chroma subsampling                       : 4:2:0
  19. Bit depth                                : 8 bits
  20. Scan type                                : Progressive
  21. Bits/(Pixel*Frame)                       : 0.343
  22. Stream size                              : 8.35 GiB (95%)
  23. Writing library                          : x264 core 157 r2932 303c484
  24. Encoding settings                        : cabac=1 / ref=5 / deblock=1:-3:-3 / analyse=0x3:0x113 / me=umh / subme=8 / psy=1 / psy_rd=1.00:0.00 / mixed_ref=1 / me_range=16 / chroma_me=1 / trellis=2 / 8x8dct=1 / cqm=0 / deadzone=21,11 / fast_pskip=0 / chroma_qp_offset=-2 / threads=24 / lookahead_threads=4 / sliced_threads=0 / nr=0 / decimate=1 / interlaced=0 / bluray_compat=0 / constrained_intra=0 / bframes=3 / b_pyramid=2 / b_adapt=1 / b_bias=0 / direct=1 / weightb=1 / open_gop=0 / weightp=2 / keyint=250 / keyint_min=23 / scenecut=40 / intra_refresh=0 / rc_lookahead=40 / rc=2pass / mbtree=1 / bitrate=12780 / ratetol=1.0 / qcomp=0.60 / qpmin=0 / qpmax=69 / qpstep=4 / cplxblur=20.0 / qblur=0.5 / ip_ratio=1.40 / aq=1:1.00
  25. Language                                 : English
  26. Default                                  : Yes
  27. Forced                                   : No

  28. Audio
  29. ID                                       : 2
  30. Format                                   : FLAC
  31. Format/Info                              : Free Lossless Audio Codec
  32. Codec ID                                 : A_FLAC
  33. Duration                                 : 1 h 33 min
  34. Bit rate mode                            : Variable
  35. Bit rate                                 : 607 kb/s
  36. Channel(s)                               : 1 channel
  37. Channel positions                        : Front: C
  38. Sampling rate                            : 48.0 kHz
  39. Frame rate                               : 11.719 FPS (4096 SPF)
  40. Bit depth                                : 24 bits
  41. Stream size                              : 406 MiB (5%)
  42. Writing library                          : libFLAC 1.3.2 (UTC 2017-01-01)
  43. Language                                 : English
  44. Default                                  : Yes
  45. Forced                                   : No

  46. Text #1
  47. ID                                       : 3
  48. Format                                   : UTF-8
  49. Codec ID                                 : S_TEXT/UTF8
  50. Codec ID/Info                            : UTF-8 Plain Text
  51. Duration                                 : 1 h 31 min
  52. Bit rate                                 : 117 b/s
  53. Count of elements                        : 1699
  54. Stream size                              : 78.7 KiB (0%)
  55. Language                                 : English
  56. Default                                  : No
  57. Forced                                   : No

  58. Text #2
  59. ID                                       : 4
  60. Format                                   : UTF-8
  61. Codec ID                                 : S_TEXT/UTF8
  62. Codec ID/Info                            : UTF-8 Plain Text
  63. Duration                                 : 1 h 31 min
  64. Bit rate                                 : 121 b/s
  65. Count of elements                        : 1769
  66. Stream size                              : 81.5 KiB (0%)
  67. Title                                    : SDH
  68. Language                                 : English
  69. Default                                  : No
  70. Forced                                   : No

  71. Menu
  72. 00:00:00.000                             : en:00:00:00.000
  73. 00:01:38.098                             : en:00:01:38.098
  74. 00:06:44.529                             : en:00:06:44.529
  75. 00:11:57.175                             : en:00:11:57.175
  76. 00:14:59.524                             : en:00:14:59.524
  77. 00:21:32.666                             : en:00:21:32.666
  78. 00:25:59.767                             : en:00:25:59.767
  79. 00:31:29.679                             : en:00:31:29.679
  80. 00:36:18.760                             : en:00:36:18.760
  81. 00:39:09.013                             : en:00:39:09.013
  82. 00:42:15.575                             : en:00:42:15.575
  83. 00:49:41.145                             : en:00:49:41.145
  84. 00:51:04.645                             : en:00:51:04.645
  85. 00:55:52.474                             : en:00:55:52.474
  86. 00:58:08.318                             : en:00:58:08.318
  87. 01:00:45.225                             : en:01:00:45.225
  88. 01:07:36.844                             : en:01:07:36.844
  89. 01:10:19.132                             : en:01:10:19.132
  90. 01:12:44.944                             : en:01:12:44.944
  91. 01:17:14.004                             : en:01:17:14.004
  92. 01:21:41.897                             : en:01:21:41.897
  93. 01:26:43.281                             : en:01:26:43.281
  94. 01:27:51.308                             : en:01:27:51.308
复制代码

复制代码

我的戈弗雷/我的高德弗里 My.Man.Godfrey.1936.1080p.BluRay.x264-SiNNERS 8.75GB-2.jpg






回复

使用道具 举报

蓝光币
1822
发表于 2020-10-16 14:58:12 | 显示全部楼层
感谢楼主分享!!!老电影!!!
回复 支持 反对

使用道具 举报

懒得打字嘛,点击右侧快捷回复 【右侧内容,后台自定义】
您需要登录后才可以回帖 登录 | 立即加入

本版积分规则

Archiver|小黑屋| 蓝光电影网 |网站地图

Copyright © 2021 Comsenz Inc. Powered by 蓝光电影网

蓝光电影网

本站内容由用户自主分享和转载自互联网,转载目的在于传递更多信息,并不代表本网赞同其观点和对其真实性负责。

如有侵权、违反国家法律政策行为,请联系我们,我们会第一时间及时清除和处理!

举报反馈邮箱:[email protected]

快速回复 返回顶部 返回列表