找回密码

蓝光电影网

查看: 862|回复: 2

[动作] 游侠索罗:星球大战外传/韩索罗:星球大战外传 Solo.A.Star.Wars.Story.2018.1080p.BluRay.x264.DTS-HD.MA.7.1-HDChina 21.56GB

[复制链接]
蓝光币
623
发表于 2018-9-12 11:34:37 | 显示全部楼层 |阅读模式

游侠索罗:星球大战外传/韩索罗:星球大战外传 Solo.A.Star.Wars.Story.2018.1080p.BluRay.x264.DTS-HD.MA.7.1-HDChina 21.56GB-1.jpg
◎译  名 游侠索罗:星球大战外传/韩索罗:星球大战外传(港)/星球大战外传:游侠索罗/星球大战外传:索罗/星球大战韩·索罗外传/游侠索罗/韩索罗外传/星战外传2
◎片  名 Solo: A Star Wars Story
◎年  代 2018
◎产  地 美国
◎类  别 行动/科幻/冒险
◎语  言 英语
◎上映日期 2018-05-10(洛杉矶首映)/2018-05-25(美国)/2018-05-25(中国大陆)
◎豆瓣评分 7.0/10 from 22,839 users
◎豆瓣链接 https://movie.douban.com/subject/25900947/
◎片  长 135分钟
◎导  演 朗·霍华德 Ron Howard
◎主  演 阿尔登·埃伦瑞奇 Alden Ehrenreich
      艾米莉亚·克拉克 Emilia Clarke
      伍迪·哈里森 Woody Harrelson
      唐纳德·格洛弗 Donald Glover
      保罗·贝坦尼 Paul Bettany
      乔纳斯·索塔莫 Joonas Suotamo
      菲比·沃勒-布里奇 Phoebe Waller-Bridge
      沃维克·戴维斯 Warwick Davis
      坦迪·牛顿 Thandie Newton
      克林特·霍华德 Clint Howard
      伊安·肯尼 Ian Kenny
      理查德·迪克森 Richard Dixon

◎简  介

  在《游侠索罗》(暂译)中,影迷们将跟从“千年隼号”及银河系中最受爱戴的“无赖”韩·索罗,迎来全新的银河系探险旅程。经过在黑暗危险的罪犯地下社会中的重重冒险,韩·索罗碰见了他未来强大的副驾驶丘巴卡、以及污名昭著的赌徒兰多·卡瑞辛,配合展开了一场星战传奇中最不“正统”的豪杰过程。

  1. Video
  2. ID                                       : 1
  3. Format                                   : AVC
  4. Format/Info                              : Advanced Video Codec
  5. Format profile                           : [url=/cdn-cgi/l/email-protection][email protected][/url]
  6. Format settings                          : CABAC / 5 Ref Frames
  7. Format settings, CABAC                   : Yes
  8. Format settings, ReFrames                : 5 frames
  9. Codec ID                                 : V_MPEG4/ISO/AVC
  10. Duration                                 : 2 h 14 min
  11. Bit rate                                 : 17.5 Mb/s
  12. Width                                    : 1 920 pixels
  13. Height                                   : 804 pixels
  14. Display aspect ratio                     : 2.40:1
  15. Frame rate mode                          : Constant
  16. Frame rate                               : 23.976 (24000/1001) FPS
  17. Color space                              : YUV
  18. Chroma subsampling                       : 4:2:0
  19. Bit depth                                : 8 bits
  20. Scan type                                : Progressive
  21. Bits/(Pixel*Frame)                       : 0.473
  22. Stream size                              : 16.5 GiB (76%)
  23. Title                                    : Solo.A.Star.Wars.Story.2018.1080p.BluRay.x264.DTS-HD.MA.7.1-HDC
  24. Writing library                          : x264 core 152 r2851kMod ba24899
  25. Encoding settings                        : cabac=1 / ref=5 / deblock=1:-3:-3 / analyse=0x3:0x133 / me=umh / subme=11 / psy=1 / fade_compensate=0.00 / psy_rd=1.10:0.00 / mixed_ref=1 / me_range=64 / chroma_me=1 / trellis=2 / 8x8dct=1 / cqm=0 / deadzone=21,11 / fast_pskip=0 / chroma_qp_offset=-2 / threads=24 / lookahead_threads=4 / sliced_threads=0 / nr=0 / decimate=0 / interlaced=0 / bluray_compat=0 / constrained_intra=0 / bframes=8 / b_pyramid=2 / b_adapt=2 / b_bias=0 / direct=3 / weightb=1 / open_gop=0 / weightp=2 / keyint=240 / keyint_min=2 / scenecut=40 / intra_refresh=0 / rc=2pass / mbtree=0 / bitrate=17500 / ratetol=1.0 / qcomp=0.70 / qpmin=0 / qpmax=69 / qpstep=4 / cplxblur=20.0 / qblur=0.5 / ip_ratio=1.30 / pb_ratio=1.20 / aq=3:0.90
  26. Default                                  : Yes
  27. Forced                                   : No

  28. Audio
  29. ID                                       : 2
  30. Format                                   : DTS
  31. Format/Info                              : Digital Theater Systems
  32. Format profile                           : MA / Core
  33. Codec ID                                 : A_DTS
  34. Duration                                 : 2 h 14 min
  35. Bit rate mode                            : Variable / Constant
  36. Bit rate                                 : 5 407 kb/s / 1 509 kb/s
  37. Channel(s)                               : 8 channels / 6 channels
  38. Channel positions                        : Front: L C R, Side: L R, Back: L R, LFE / Front: L C R, Side: L R, LFE
  39. Sampling rate                            : 48.0 kHz
  40. Frame rate                               : 93.750 FPS (512 SPF)
  41. Bit depth                                : 24 bits
  42. Compression mode                         : Lossless / Lossy
  43. Stream size                              : 5.09 GiB (24%)
  44. Title                                    : Solo.A.Star.Wars.Story.2018.1080p.BluRay.x264.DTS-HD.MA.7.1-HDC
  45. Language                                 : English
  46. Default                                  : Yes
  47. Forced                                   : No

  48. Text #1
  49. ID                                       : 3
  50. Format                                   : UTF-8
  51. Codec ID                                 : S_TEXT/UTF8
  52. Codec ID/Info                            : UTF-8 Plain Text
  53. Duration                                 : 2 h 5 min
  54. Bit rate                                 : 56 b/s
  55. Count of elements                        : 1957
  56. Stream size                              : 51.9 KiB (0%)
  57. Title                                    : English-SRT
  58. Language                                 : English
  59. Default                                  : Yes
  60. Forced                                   : No

  61. Text #2
  62. ID                                       : 4
  63. Format                                   : UTF-8
  64. Codec ID                                 : S_TEXT/UTF8
  65. Codec ID/Info                            : UTF-8 Plain Text
  66. Duration                                 : 2 h 5 min
  67. Bit rate                                 : 63 b/s
  68. Count of elements                        : 2232
  69. Stream size                              : 58.5 KiB (0%)
  70. Title                                    : English-SDH
  71. Language                                 : English
  72. Default                                  : No
  73. Forced                                   : No

  74. Text #3
  75. ID                                       : 5
  76. Format                                   : PGS
  77. Muxing mode                              : zlib
  78. Codec ID                                 : S_HDMV/PGS
  79. Codec ID/Info                            : Picture based subtitle format used on BDs/HD-DVDs
  80. Duration                                 : 2 h 5 min
  81. Bit rate                                 : 42.3 kb/s
  82. Count of elements                        : 4496
  83. Stream size                              : 37.9 MiB (0%)
  84. Title                                    : English-PGS
  85. Language                                 : English
  86. Default                                  : No
  87. Forced                                   : No

  88. Menu
  89. 00:00:00.000                             : en:Opening Credits
  90. 00:00:53.845                             : en:Streets of Corellia
  91. 00:02:10.213                             : en:Qi\'ra
  92. 00:03:53.150                             : en:Den of The White Worms
  93. 00:06:00.485                             : en:Corellian Speeder Chase
  94. 00:09:27.567                             : en:Coronet Spaceport
  95. 00:13:16.045                             : en:Recruitment
  96. 00:14:14.020                             : en:Mimban Battlefield
  97. 00:16:12.263                             : en:None-of-Your-Business Company
  98. 00:19:45.101                             : en:The Beast
  99. 00:22:43.821                             : en:Mimban Escape
  100. 00:24:37.267                             : en:Vandor
  101. 00:27:00.035                             : en:Camfire Stories
  102. 00:30:02.926                             : en:Conveyex Heist
  103. 00:32:54.681                             : en:Marauder Attack
  104. 00:39:09.764                             : en:\"You\'re in This Life For Good\"
  105. 00:41:59.225                             : en:The Yacht
  106. 00:43:20.181                             : en:Dryden Vos
  107. 00:44:32.128                             : en:Reunion
  108. 00:48:03.756                             : en:Deal with Crimson Dawn
  109. 00:51:58.324                             : en:The Lodge
  110. 00:53:17.528                             : en:Full Sabacc
  111. 00:57:23.523                             : en:Lando and L3
  112. 01:00:16.780                             : en:Millennium Falcon
  113. 01:02:40.882                             : en:\"Buckle Up, Baby\"
  114. 01:04:51.262                             : en:\"People Are Predictable\"
  115. 01:05:29.509                             : en:Han and Qi\'ra
  116. 01:07:12.028                             : en:\"Trust No One\"
  117. 01:08:05.915                             : en:Not Cpmpatible
  118. 01:10:00.113                             : en:Arrival on Kessel
  119. 01:12:44.193                             : en:Into the Mines
  120. 01:14:40.851                             : en:Revolt
  121. 01:18:30.873                             : en:Kessel Shootout
  122. 01:23:15.741                             : en:Into the Maelstrom
  123. 01:26:32.646                             : en:Kessel Run
  124. 01:30:33.136                             : en:Escaping the Maw
  125. 01:35:19.672                             : en:Savareen
  126. 01:37:04.861                             : en:The Good Guy
  127. 01:38:52.802                             : en:Marauders Return
  128. 01:41:18.531                             : en:Enfys Nest
  129. 01:43:02.676                             : en:One Last Score
  130. 01:45:27.821                             : en:The Delivery
  131. 01:46:32.177                             : en:Explosive Stuff
  132. 01:49:45.996                             : en:Double-Crossings
  133. 01:53:33.890                             : en:Duel with Dryden
  134. 01:57:13.902                             : en:Secret Leader
  135. 01:58:55.128                             : en:Showdown
  136. 02:01:34.829                             : en:Rebellion\'s Dawn
  137. 02:03:20.893                             : en:Sabacc Rematch
  138. 02:06:09.353                             : en:End Credits
复制代码

复制代码

游侠索罗:星球大战外传/韩索罗:星球大战外传 Solo.A.Star.Wars.Story.2018.1080p.BluRay.x264.DTS-HD.MA.7.1-HDChina 21.56GB-2.png 游侠索罗:星球大战外传/韩索罗:星球大战外传 Solo.A.Star.Wars.Story.2018.1080p.BluRay.x264.DTS-HD.MA.7.1-HDChina 21.56GB-3.png 游侠索罗:星球大战外传/韩索罗:星球大战外传 Solo.A.Star.Wars.Story.2018.1080p.BluRay.x264.DTS-HD.MA.7.1-HDChina 21.56GB-4.png






回复

使用道具 举报

懒得打字嘛,点击右侧快捷回复 【右侧内容,后台自定义】
您需要登录后才可以回帖 登录 | 立即加入

本版积分规则

Archiver|小黑屋| 蓝光电影网 |网站地图

Copyright © 2021 Comsenz Inc. Powered by 蓝光电影网

蓝光电影网

本站内容由用户自主分享和转载自互联网,转载目的在于传递更多信息,并不代表本网赞同其观点和对其真实性负责。

如有侵权、违反国家法律政策行为,请联系我们,我们会第一时间及时清除和处理!

举报反馈邮箱:[email protected]

快速回复 返回顶部 返回列表