找回密码

蓝光电影网

查看: 1005|回复: 5

[动作] 黑客帝国/廿二世纪杀人网络 The.Matrix.1999.REMASTERED.RERIP.1080p.BluRay.x264.TrueHD.7.1.Atmos-SWTYBLZ 19.27GB

[复制链接]
蓝光币
623
发表于 2018-9-12 11:35:03 | 显示全部楼层 |阅读模式

黑客帝国/廿二世纪杀人收集 The.Matrix.1999.REMASTERED.RERIP.1080p.BluRay.x264.TrueHD.7.1.Atmos-SWTYBLZ 19.27GB-1.jpg
◎译  名 黑客帝国/廿二世纪杀人收集(港)/骇客使命(台)
◎片  名 The Matrix
◎年  代 1999
◎产  地 美国/澳大利亚
◎类  别 行动/科幻
◎语  言 英语
◎上映日期 1999-03-31(美国)
◎豆瓣评分 8.9/10 from 332,899 users
◎豆瓣链接 https://movie.douban.com/subject/1291843/
◎片  长 136分钟
◎导  演 安迪·沃卓斯基 Andy Wachowski / 拉娜·沃卓斯基 Lana Wachowski
◎主  演 基努·李维斯 Keanu Reeves
      凯瑞-安·莫斯 Carrie-Anne Moss
      劳伦斯·菲什伯恩 Laurence Fishburne
      雨果·维文 Hugo Weaving
      格洛丽亚·福斯特 Gloria Foster
      乔·潘托里亚诺 Joe Pantoliano
      马库斯·钟 Marcus Chong
      朱利安·阿拉汗加 Julian Arahanga
      马特·多兰 Matt Doran

◎简  介

  未几的未来,收集黑客尼奥(基奴李维斯 饰)对这个看似一般的现实天下发生了思疑。他结识了黑客崔妮蒂(凯莉·安·摩丝 饰),并见到了黑客构造的首领墨菲斯(劳伦斯·菲什伯恩 饰)。墨菲斯告诉他,现实天下实在是由一个名叫“母体”的计较机野生智能系统控制,人们就像他们饲养的动物,没有自在和思惟,而尼奥就是可以拯救人类的救世主。
  可是,救赎之路历来都不会风平浪静,到底那里才是实在的天下?若何才能打败那些超人一样的特勤?尼奥能否是人类的希望?这是黑客的帝国,法式和代码接待大师的到来。.

◎获奖情况

  第72届奥斯卡金像奖  (2000)
  最好剪辑 扎克·斯伯格
  最好视觉结果 加内克·西尔斯 / John Gaeta / Steve Courtley / Jon Thum
  最好音效剪辑 Dane A. Davis
  最好声响 约翰·T·赖茨 / 大卫·李 / 大卫·E·坎贝尔 / 格雷格·鲁德洛夫

  第53届英国电影学院奖  (2000)
  电影奖 最好摄影(提名) 比尔·波普
  电影奖 最好剪辑(提名) 扎克·斯伯格
  电影奖 最好艺术指导(提名) Owen Paterson
  电影奖 最好特别视觉结果 John Gaeta / Jon Thum / Steve Courtley / 加内克·西尔斯
  电影奖 最好音效 约翰·T·赖茨 / 大卫·李 / 大卫·E·坎贝尔 / Dane A. Davis / 格雷格·鲁德洛夫
  电影奖 最好音效(提名) 约翰·T·赖茨 / 大卫·李 / 大卫·E·坎贝尔 / Dane A. Davis / 格雷格·鲁德洛夫

  第23届日本电影学院奖  (2000)
  最好外语片(提名)

  1. Video
  2. ID                                       : 1
  3. Format                                   : AVC
  4. Format/Info                              : Advanced Video Codec
  5. Format profile                           : [url=/cdn-cgi/l/email-protection][email protected][/url]
  6. Format settings                          : CABAC / 5 Ref Frames
  7. Format settings, CABAC                   : Yes
  8. Format settings, ReFrames                : 5 frames
  9. Codec ID                                 : V_MPEG4/ISO/AVC
  10. Duration                                 : 2 h 16 min
  11. Bit rate                                 : 15.1 Mb/s
  12. Width                                    : 1 920 pixels
  13. Height                                   : 800 pixels
  14. Display aspect ratio                     : 2.40:1
  15. Frame rate mode                          : Constant
  16. Frame rate                               : 23.976 (24000/1001) FPS
  17. Color space                              : YUV
  18. Chroma subsampling                       : 4:2:0
  19. Bit depth                                : 8 bits
  20. Scan type                                : Progressive
  21. Bits/(Pixel*Frame)                       : 0.410
  22. Stream size                              : 14.4 GiB (75%)
  23. Title                                    : The.Matrix.1999.REMASTERED.RERIP.1080p.BluRay.x264.TrueHD.7.1.Atmos-SWTYBLZ
  24. Writing library                          : x264 core 155 r2901 7d0ff22
  25. Encoding settings                        : cabac=1 / ref=5 / deblock=1:-1:-1 / analyse=0x3:0x133 / me=umh / subme=10 / psy=1 / psy_rd=1.00:0.15 / mixed_ref=1 / me_range=48 / chroma_me=1 / trellis=2 / 8x8dct=1 / cqm=0 / deadzone=21,11 / fast_pskip=1 / chroma_qp_offset=-3 / threads=25 / lookahead_threads=4 / sliced_threads=0 / nr=0 / decimate=0 / interlaced=0 / bluray_compat=0 / constrained_intra=0 / bframes=8 / b_pyramid=2 / b_adapt=2 / b_bias=0 / direct=3 / weightb=1 / open_gop=0 / weightp=2 / keyint=250 / keyint_min=23 / scenecut=40 / intra_refresh=0 / rc_lookahead=60 / rc=crf / mbtree=1 / crf=17.0 / qcomp=0.60 / qpmin=0 / qpmax=69 / qpstep=4 / ip_ratio=1.40 / aq=1:1.00
  26. Default                                  : Yes
  27. Forced                                   : No

  28. Audio #1
  29. ID                                       : 2
  30. Format                                   : TrueHD
  31. Format profile                           : TrueHD+Atmos / TrueHD
  32. Codec ID                                 : A_TRUEHD
  33. Duration                                 : 2 h 16 min
  34. Bit rate mode                            : Variable
  35. Bit rate                                 : 4 420 kb/s
  36. Maximum bit rate                         : 7 794 kb/s
  37. Channel(s)                               : Object Based / 8 channels
  38. Channel positions                        : Object Based / Front: L C R, Side: L R, Back: L R, LFE
  39. Sampling rate                            :  / 48.0 kHz
  40. Frame rate                               : 1 200.000 FPS (40 SPF)
  41. Compression mode                         : Lossless
  42. Stream size                              : 4.21 GiB (22%)
  43. Title                                    : The.Matrix.1999.REMASTERED.RERIP.1080p.BluRay.x264.TrueHD.7.1.Atmos-SWTYBLZ
  44. Language                                 : English
  45. Default                                  : Yes
  46. Forced                                   : No

  47. Audio #2
  48. ID                                       : 3
  49. Format                                   : AC-3
  50. Format/Info                              : Audio Coding 3
  51. Codec ID                                 : A_AC3
  52. Duration                                 : 2 h 16 min
  53. Bit rate mode                            : Constant
  54. Bit rate                                 : 448 kb/s
  55. Channel(s)                               : 6 channels
  56. Channel positions                        : Front: L C R, Side: L R, LFE
  57. Sampling rate                            : 48.0 kHz
  58. Frame rate                               : 31.250 FPS (1536 SPF)
  59. Bit depth                                : 16 bits
  60. Compression mode                         : Lossy
  61. Stream size                              : 437 MiB (2%)
  62. Title                                    : The.Matrix.1999.REMASTERED.RERIP.1080p.BluRay.x264.TrueHD.7.1.Atmos-SWTYBLZ
  63. Language                                 : English
  64. Service kind                             : Complete Main
  65. Default                                  : No
  66. Forced                                   : No

  67. Text #1
  68. ID                                       : 4
  69. Format                                   : UTF-8
  70. Codec ID                                 : S_TEXT/UTF8
  71. Codec ID/Info                            : UTF-8 Plain Text
  72. Duration                                 : 2 h 7 min
  73. Bit rate                                 : 40 b/s
  74. Count of elements                        : 1342
  75. Stream size                              : 37.8 KiB (0%)
  76. Title                                    : English-SRT
  77. Language                                 : English
  78. Default                                  : Yes
  79. Forced                                   : No

  80. Text #2
  81. ID                                       : 5
  82. Format                                   : PGS
  83. Muxing mode                              : zlib
  84. Codec ID                                 : S_HDMV/PGS
  85. Codec ID/Info                            : Picture based subtitle format used on BDs/HD-DVDs
  86. Duration                                 : 2 h 15 min
  87. Bit rate                                 : 21.3 kb/s
  88. Count of elements                        : 2746
  89. Stream size                              : 20.6 MiB (0%)
  90. Title                                    : English-PGS
  91. Language                                 : English
  92. Default                                  : No
  93. Forced                                   : No

  94. Text #3
  95. ID                                       : 6
  96. Format                                   : PGS
  97. Muxing mode                              : zlib
  98. Codec ID                                 : S_HDMV/PGS
  99. Codec ID/Info                            : Picture based subtitle format used on BDs/HD-DVDs
  100. Duration                                 : 2 h 15 min
  101. Bit rate                                 : 22.3 kb/s
  102. Count of elements                        : 2844
  103. Stream size                              : 21.6 MiB (0%)
  104. Title                                    : German-PGS
  105. Language                                 : German
  106. Default                                  : No
  107. Forced                                   : No

  108. Text #4
  109. ID                                       : 7
  110. Format                                   : PGS
  111. Muxing mode                              : zlib
  112. Codec ID                                 : S_HDMV/PGS
  113. Codec ID/Info                            : Picture based subtitle format used on BDs/HD-DVDs
  114. Duration                                 : 2 h 7 min
  115. Bit rate                                 : 17.7 kb/s
  116. Count of elements                        : 2477
  117. Stream size                              : 16.2 MiB (0%)
  118. Title                                    : Japanese-PGS
  119. Language                                 : Japanese
  120. Default                                  : No
  121. Forced                                   : No

  122. Text #5
  123. ID                                       : 8
  124. Format                                   : PGS
  125. Muxing mode                              : zlib
  126. Codec ID                                 : S_HDMV/PGS
  127. Codec ID/Info                            : Picture based subtitle format used on BDs/HD-DVDs
  128. Duration                                 : 2 h 15 min
  129. Bit rate                                 : 20.6 kb/s
  130. Count of elements                        : 2702
  131. Stream size                              : 20.0 MiB (0%)
  132. Title                                    : Italian-PGS
  133. Language                                 : Italian
  134. Default                                  : No
  135. Forced                                   : No

  136. Text #6
  137. ID                                       : 9
  138. Format                                   : PGS
  139. Muxing mode                              : zlib
  140. Codec ID                                 : S_HDMV/PGS
  141. Codec ID/Info                            : Picture based subtitle format used on BDs/HD-DVDs
  142. Duration                                 : 2 h 15 min
  143. Bit rate                                 : 18.9 kb/s
  144. Count of elements                        : 2660
  145. Stream size                              : 18.4 MiB (0%)
  146. Title                                    : Spanish-PGS
  147. Language                                 : Spanish
  148. Default                                  : No
  149. Forced                                   : No

  150. Text #7
  151. ID                                       : 10
  152. Format                                   : PGS
  153. Muxing mode                              : zlib
  154. Codec ID                                 : S_HDMV/PGS
  155. Codec ID/Info                            : Picture based subtitle format used on BDs/HD-DVDs
  156. Duration                                 : 2 h 15 min
  157. Bit rate                                 : 17.2 kb/s
  158. Count of elements                        : 2620
  159. Stream size                              : 16.7 MiB (0%)
  160. Title                                    : Chinese-PGS
  161. Language                                 : Chinese
  162. Default                                  : No
  163. Forced                                   : No

  164. Text #8
  165. ID                                       : 11
  166. Format                                   : PGS
  167. Muxing mode                              : zlib
  168. Codec ID                                 : S_HDMV/PGS
  169. Codec ID/Info                            : Picture based subtitle format used on BDs/HD-DVDs
  170. Duration                                 : 2 h 15 min
  171. Bit rate                                 : 14.1 kb/s
  172. Count of elements                        : 2600
  173. Stream size                              : 13.7 MiB (0%)
  174. Title                                    : Korean-PGS
  175. Language                                 : Korean
  176. Default                                  : No
  177. Forced                                   : No

  178. Text #9
  179. ID                                       : 12
  180. Format                                   : PGS
  181. Muxing mode                              : zlib
  182. Codec ID                                 : S_HDMV/PGS
  183. Codec ID/Info                            : Picture based subtitle format used on BDs/HD-DVDs
  184. Duration                                 : 2 h 15 min
  185. Bit rate                                 : 20.5 kb/s
  186. Count of elements                        : 2606
  187. Stream size                              : 19.9 MiB (0%)
  188. Title                                    : Portuguese-PGS
  189. Language                                 : Portuguese
  190. Default                                  : No
  191. Forced                                   : No

  192. Text #10
  193. ID                                       : 13
  194. Format                                   : PGS
  195. Muxing mode                              : zlib
  196. Codec ID                                 : S_HDMV/PGS
  197. Codec ID/Info                            : Picture based subtitle format used on BDs/HD-DVDs
  198. Duration                                 : 2 h 15 min
  199. Bit rate                                 : 10.3 kb/s
  200. Count of elements                        : 2764
  201. Stream size                              : 9.95 MiB (0%)
  202. Title                                    : Arabic-PGS
  203. Language                                 : Arabic
  204. Default                                  : No
  205. Forced                                   : No

  206. Text #11
  207. ID                                       : 14
  208. Format                                   : PGS
  209. Muxing mode                              : zlib
  210. Codec ID                                 : S_HDMV/PGS
  211. Codec ID/Info                            : Picture based subtitle format used on BDs/HD-DVDs
  212. Duration                                 : 2 h 15 min
  213. Bit rate                                 : 18.7 kb/s
  214. Count of elements                        : 2774
  215. Stream size                              : 18.1 MiB (0%)
  216. Title                                    : Croatian-PGS
  217. Language                                 : Croatian
  218. Default                                  : No
  219. Forced                                   : No

  220. Text #12
  221. ID                                       : 15
  222. Format                                   : PGS
  223. Muxing mode                              : zlib
  224. Codec ID                                 : S_HDMV/PGS
  225. Codec ID/Info                            : Picture based subtitle format used on BDs/HD-DVDs
  226. Duration                                 : 2 h 15 min
  227. Bit rate                                 : 16.6 kb/s
  228. Count of elements                        : 2730
  229. Stream size                              : 16.0 MiB (0%)
  230. Title                                    : Czech-PGS
  231. Language                                 : Czech
  232. Default                                  : No
  233. Forced                                   : No

  234. Text #13
  235. ID                                       : 16
  236. Format                                   : PGS
  237. Muxing mode                              : zlib
  238. Codec ID                                 : S_HDMV/PGS
  239. Codec ID/Info                            : Picture based subtitle format used on BDs/HD-DVDs
  240. Duration                                 : 2 h 15 min
  241. Bit rate                                 : 18.6 kb/s
  242. Count of elements                        : 1844
  243. Stream size                              : 18.0 MiB (0%)
  244. Title                                    : Danish-PGS
  245. Language                                 : Danish
  246. Default                                  : No
  247. Forced                                   : No

  248. Text #14
  249. ID                                       : 17
  250. Format                                   : PGS
  251. Muxing mode                              : zlib
  252. Codec ID                                 : S_HDMV/PGS
  253. Codec ID/Info                            : Picture based subtitle format used on BDs/HD-DVDs
  254. Duration                                 : 2 h 15 min
  255. Bit rate                                 : 18.1 kb/s
  256. Count of elements                        : 1658
  257. Stream size                              : 17.6 MiB (0%)
  258. Title                                    : Finnish-PGS
  259. Language                                 : Finnish
  260. Default                                  : No
  261. Forced                                   : No

  262. Text #15
  263. ID                                       : 18
  264. Format                                   : PGS
  265. Muxing mode                              : zlib
  266. Codec ID                                 : S_HDMV/PGS
  267. Codec ID/Info                            : Picture based subtitle format used on BDs/HD-DVDs
  268. Duration                                 : 2 h 15 min
  269. Bit rate                                 : 19.2 kb/s
  270. Count of elements                        : 2382
  271. Stream size                              : 18.6 MiB (0%)
  272. Title                                    : Greek-PGS
  273. Language                                 : Greek
  274. Default                                  : No
  275. Forced                                   : No

  276. Text #16
  277. ID                                       : 19
  278. Format                                   : PGS
  279. Muxing mode                              : zlib
  280. Codec ID                                 : S_HDMV/PGS
  281. Codec ID/Info                            : Picture based subtitle format used on BDs/HD-DVDs
  282. Duration                                 : 2 h 15 min
  283. Bit rate                                 : 20.0 kb/s
  284. Count of elements                        : 1984
  285. Stream size                              : 19.3 MiB (0%)
  286. Title                                    : Norwegian-PGS
  287. Language                                 : Norwegian
  288. Default                                  : No
  289. Forced                                   : No

  290. Text #17
  291. ID                                       : 20
  292. Format                                   : PGS
  293. Muxing mode                              : zlib
  294. Codec ID                                 : S_HDMV/PGS
  295. Codec ID/Info                            : Picture based subtitle format used on BDs/HD-DVDs
  296. Duration                                 : 2 h 15 min
  297. Bit rate                                 : 18.2 kb/s
  298. Count of elements                        : 2774
  299. Stream size                              : 17.7 MiB (0%)
  300. Title                                    : Hungarian-PGS
  301. Language                                 : Hungarian
  302. Default                                  : No
  303. Forced                                   : No

  304. Text #18
  305. ID                                       : 21
  306. Format                                   : PGS
  307. Muxing mode                              : zlib
  308. Codec ID                                 : S_HDMV/PGS
  309. Codec ID/Info                            : Picture based subtitle format used on BDs/HD-DVDs
  310. Duration                                 : 2 h 15 min
  311. Bit rate                                 : 16.1 kb/s
  312. Count of elements                        : 2770
  313. Stream size                              : 15.6 MiB (0%)
  314. Title                                    : Polish-PGS
  315. Language                                 : Polish
  316. Default                                  : No
  317. Forced                                   : No

  318. Text #19
  319. ID                                       : 22
  320. Format                                   : PGS
  321. Muxing mode                              : zlib
  322. Codec ID                                 : S_HDMV/PGS
  323. Codec ID/Info                            : Picture based subtitle format used on BDs/HD-DVDs
  324. Duration                                 : 2 h 15 min
  325. Bit rate                                 : 21.7 kb/s
  326. Count of elements                        : 2644
  327. Stream size                              : 21.1 MiB (0%)
  328. Title                                    : Portuguese-PGS
  329. Language                                 : Portuguese
  330. Default                                  : No
  331. Forced                                   : No

  332. Text #20
  333. ID                                       : 23
  334. Format                                   : PGS
  335. Muxing mode                              : zlib
  336. Codec ID                                 : S_HDMV/PGS
  337. Codec ID/Info                            : Picture based subtitle format used on BDs/HD-DVDs
  338. Duration                                 : 2 h 7 min
  339. Bit rate                                 : 263 b/s
  340. Count of elements                        : 42
  341. Stream size                              : 246 KiB (0%)
  342. Title                                    : Hungarian-PGS
  343. Language                                 : Hungarian
  344. Default                                  : No
  345. Forced                                   : No

  346. Text #21
  347. ID                                       : 24
  348. Format                                   : PGS
  349. Muxing mode                              : zlib
  350. Codec ID                                 : S_HDMV/PGS
  351. Codec ID/Info                            : Picture based subtitle format used on BDs/HD-DVDs
  352. Duration                                 : 2 h 15 min
  353. Bit rate                                 : 18.3 kb/s
  354. Count of elements                        : 2736
  355. Stream size                              : 17.7 MiB (0%)
  356. Title                                    : Romanian-PGS
  357. Language                                 : Romanian
  358. Default                                  : No
  359. Forced                                   : No

  360. Text #22
  361. ID                                       : 25
  362. Format                                   : PGS
  363. Muxing mode                              : zlib
  364. Codec ID                                 : S_HDMV/PGS
  365. Codec ID/Info                            : Picture based subtitle format used on BDs/HD-DVDs
  366. Duration                                 : 2 h 15 min
  367. Bit rate                                 : 20.6 kb/s
  368. Count of elements                        : 2734
  369. Stream size                              : 20.0 MiB (0%)
  370. Title                                    : Russian-PGS
  371. Language                                 : Russian
  372. Default                                  : No
  373. Forced                                   : No

  374. Text #23
  375. ID                                       : 26
  376. Format                                   : PGS
  377. Muxing mode                              : zlib
  378. Codec ID                                 : S_HDMV/PGS
  379. Codec ID/Info                            : Picture based subtitle format used on BDs/HD-DVDs
  380. Duration                                 : 2 h 15 min
  381. Bit rate                                 : 17.7 kb/s
  382. Count of elements                        : 1740
  383. Stream size                              : 17.2 MiB (0%)
  384. Title                                    : Swedish-PGS
  385. Language                                 : Swedish
  386. Default                                  : No
  387. Forced                                   : No

  388. Text #24
  389. ID                                       : 27
  390. Format                                   : PGS
  391. Muxing mode                              : zlib
  392. Codec ID                                 : S_HDMV/PGS
  393. Codec ID/Info                            : Picture based subtitle format used on BDs/HD-DVDs
  394. Duration                                 : 2 h 15 min
  395. Bit rate                                 : 20.5 kb/s
  396. Count of elements                        : 2604
  397. Stream size                              : 19.9 MiB (0%)
  398. Title                                    : Thai-PGS
  399. Language                                 : Thai
  400. Default                                  : No
  401. Forced                                   : No

  402. Text #25
  403. ID                                       : 28
  404. Format                                   : PGS
  405. Muxing mode                              : zlib
  406. Codec ID                                 : S_HDMV/PGS
  407. Codec ID/Info                            : Picture based subtitle format used on BDs/HD-DVDs
  408. Duration                                 : 2 h 15 min
  409. Bit rate                                 : 19.4 kb/s
  410. Count of elements                        : 2730
  411. Stream size                              : 18.8 MiB (0%)
  412. Title                                    : Turkish-PGS
  413. Language                                 : Turkish
  414. Default                                  : No
  415. Forced                                   : No

  416. Text #26
  417. ID                                       : 29
  418. Format                                   : PGS
  419. Muxing mode                              : zlib
  420. Codec ID                                 : S_HDMV/PGS
  421. Codec ID/Info                            : Picture based subtitle format used on BDs/HD-DVDs
  422. Duration                                 : 2 h 15 min
  423. Bit rate                                 : 205 b/s
  424. Count of elements                        : 36
  425. Stream size                              : 204 KiB (0%)
  426. Title                                    : Czech-PGS
  427. Language                                 : Czech
  428. Default                                  : No
  429. Forced                                   : No

  430. Text #27
  431. ID                                       : 30
  432. Format                                   : PGS
  433. Muxing mode                              : zlib
  434. Codec ID                                 : S_HDMV/PGS
  435. Codec ID/Info                            : Picture based subtitle format used on BDs/HD-DVDs
  436. Duration                                 : 2 h 15 min
  437. Bit rate                                 : 272 b/s
  438. Count of elements                        : 44
  439. Stream size                              : 270 KiB (0%)
  440. Title                                    : Turkish-PGS
  441. Language                                 : Turkish
  442. Default                                  : No
  443. Forced                                   : No

  444. Text #28
  445. ID                                       : 31
  446. Format                                   : PGS
  447. Muxing mode                              : zlib
  448. Codec ID                                 : S_HDMV/PGS
  449. Codec ID/Info                            : Picture based subtitle format used on BDs/HD-DVDs
  450. Duration                                 : 2 h 7 min
  451. Bit rate                                 : 231 b/s
  452. Count of elements                        : 302
  453. Stream size                              : 216 KiB (0%)
  454. Title                                    : Japanese-FORCED-PGS
  455. Language                                 : Japanese
  456. Default                                  : No
  457. Forced                                   : No

  458. Menu
  459. 00:00:00.000                             : en:Chapter 1
  460. 00:03:25.788                             : en:Chapter 2
  461. 00:06:35.645                             : en:Chapter 3
  462. 00:09:42.665                             : en:Chapter 4
  463. 00:11:58.300                             : en:Chapter 5
  464. 00:16:47.423                             : en:Chapter 6
  465. 00:21:33.542                             : en:Chapter 7
  466. 00:25:08.590                             : en:Chapter 8
  467. 00:28:51.146                             : en:Chapter 9
  468. 00:32:25.193                             : en:Chapter 10
  469. 00:35:21.869                             : en:Chapter 11
  470. 00:38:40.901                             : en:Chapter 12
  471. 00:44:22.576                             : en:Chapter 13
  472. 00:46:33.540                             : en:Chapter 14
  473. 00:48:57.851                             : en:Chapter 15
  474. 00:53:31.291                             : en:Chapter 16
  475. 00:56:32.138                             : en:Chapter 17
  476. 00:59:01.287                             : en:Chapter 18
  477. 01:01:08.581                             : en:Chapter 19
  478. 01:05:16.495                             : en:Chapter 20
  479. 01:07:46.812                             : en:Chapter 21
  480. 01:12:33.432                             : en:Chapter 22
  481. 01:17:49.581                             : en:Chapter 23
  482. 01:21:03.108                             : en:Chapter 24
  483. 01:25:05.350                             : en:Chapter 25
  484. 01:29:45.129                             : en:Chapter 26
  485. 01:31:27.565                             : en:Chapter 27
  486. 01:37:25.256                             : en:Chapter 28
  487. 01:41:04.975                             : en:Chapter 29
  488. 01:44:20.337                             : en:Chapter 30
  489. 01:47:00.497                             : en:Chapter 31
  490. 01:50:18.528                             : en:Chapter 32
  491. 01:52:56.686                             : en:Chapter 33
  492. 01:56:36.906                             : en:Chapter 34
  493. 01:58:49.372                             : en:Chapter 35
  494. 02:02:27.423                             : en:Chapter 36
  495. 02:05:41.784                             : en:Chapter 37
  496. 02:08:46.802                             : en:Chapter 38
复制代码

复制代码

黑客帝国/廿二世纪杀人收集 The.Matrix.1999.REMASTERED.RERIP.1080p.BluRay.x264.TrueHD.7.1.Atmos-SWTYBLZ 19.27GB-2.png 黑客帝国/廿二世纪杀人收集 The.Matrix.1999.REMASTERED.RERIP.1080p.BluRay.x264.TrueHD.7.1.Atmos-SWTYBLZ 19.27GB-3.png 黑客帝国/廿二世纪杀人收集 The.Matrix.1999.REMASTERED.RERIP.1080p.BluRay.x264.TrueHD.7.1.Atmos-SWTYBLZ 19.27GB-4.png






回复

使用道具 举报

懒得打字嘛,点击右侧快捷回复 【右侧内容,后台自定义】
您需要登录后才可以回帖 登录 | 立即加入

本版积分规则

Archiver|小黑屋| 蓝光电影网 |网站地图

Copyright © 2021 Comsenz Inc. Powered by 蓝光电影网

蓝光电影网

本站内容由用户自主分享和转载自互联网,转载目的在于传递更多信息,并不代表本网赞同其观点和对其真实性负责。

如有侵权、违反国家法律政策行为,请联系我们,我们会第一时间及时清除和处理!

举报反馈邮箱:[email protected]

快速回复 返回顶部 返回列表