找回密码

蓝光电影网

查看: 583|回复: 1

[剧情] 德库拉的女儿 Daughter.of.Dracula.1936.1080p.BluRay.x264-SADPANDA 4.38GB

[复制链接]
蓝光币
623
发表于 2018-9-12 11:36:47 | 显示全部楼层 |阅读模式

德库拉的女儿 Daughter.of.Dracula.1936.1080p.BluRay.x264-SADPANDA 4.38GB-1.jpg
◎译  名 德库拉的女儿
◎片  名 Dracula's Daughter
◎年  代 1936
◎产  地 美国
◎类  别 剧情/可骇
◎语  言 英语/德语
◎上映日期 1936-05-11
◎豆瓣评分 6.8/10 from 54 users
◎豆瓣链接 https://movie.douban.com/subject/1998177/
◎片  长 71 分钟
◎导  演 Lambert Hillyer
◎主  演 奥托·克鲁格 Otto Kruger
      Gloria Holden
      Marguerite Churchill

◎简  介

  Hungarian countess Marya Zaleska seeks the aid of a noted psychiatrist, hoping to free herself of a mysterious evil influence.

  1. Video
  2. ID                                       : 1
  3. Format                                   : AVC
  4. Format/Info                              : Advanced Video Codec
  5. Format profile                           : [url=/cdn-cgi/l/email-protection][email protected][/url]
  6. Format settings                          : CABAC / 5 Ref Frames
  7. Format settings, CABAC                   : Yes
  8. Format settings, RefFrames               : 5 frames
  9. Codec ID                                 : V_MPEG4/ISO/AVC
  10. Duration                                 : 1 h 11 min
  11. Bit rate                                 : 8 534 kb/s
  12. Width                                    : 1 440 pixels
  13. Height                                   : 1 080 pixels
  14. Display aspect ratio                     : 4:3
  15. Frame rate mode                          : Constant
  16. Frame rate                               : 23.976 (24000/1001) FPS
  17. Color space                              : YUV
  18. Chroma subsampling                       : 4:2:0
  19. Bit depth                                : 8 bits
  20. Scan type                                : Progressive
  21. Bits/(Pixel*Frame)                       : 0.229
  22. Stream size                              : 4.24 GiB (97%)
  23. Writing library                          : x264 core 155 r2901 7d0ff22
  24. Encoding settings                        : cabac=1 / ref=5 / deblock=1:-3:-3 / analyse=0x3:0x113 / me=umh / subme=8 / psy=1 / psy_rd=1.00:0.25 / mixed_ref=1 / me_range=24 / chroma_me=1 / trellis=1 / 8x8dct=1 / cqm=0 / deadzone=21,11 / fast_pskip=1 / chroma_qp_offset=-4 / threads=30 / lookahead_threads=5 / sliced_threads=0 / nr=0 / decimate=1 / interlaced=0 / bluray_compat=0 / constrained_intra=0 / bframes=3 / b_pyramid=2 / b_adapt=1 / b_bias=0 / direct=3 / weightb=1 / open_gop=0 / weightp=2 / keyint=240 / keyint_min=24 / scenecut=40 / intra_refresh=0 / rc_lookahead=50 / rc=2pass / mbtree=1 / bitrate=8534 / ratetol=1.0 / qcomp=0.60 / qpmin=0 / qpmax=69 / qpstep=4 / cplxblur=20.0 / qblur=0.5 / ip_ratio=1.40 / aq=1:0.75
  25. Default                                  : Yes
  26. Forced                                   : No

  27. Audio
  28. ID                                       : 2
  29. Format                                   : FLAC
  30. Format/Info                              : Free Lossless Audio Codec
  31. Codec ID                                 : A_FLAC
  32. Duration                                 : 1 h 11 min
  33. Bit rate mode                            : Variable
  34. Bit rate                                 : 245 kb/s
  35. Channel(s)                               : 2 channels
  36. Channel positions                        : Front: L R
  37. Sampling rate                            : 48.0 kHz
  38. Frame rate                               : 11.719 FPS (4096 SPF)
  39. Bit depth                                : 16 bits
  40. Stream size                              : 125 MiB (3%)
  41. Writing library                          : libFLAC 1.2.1 (UTC 2007-09-17)
  42. Language                                 : English
  43. Default                                  : Yes
  44. Forced                                   : No

  45. Menu
  46. 00:00:00.000                             : en:00:00:00.000
  47. 00:04:15.547                             : en:00:04:15.547
  48. 00:10:28.086                             : en:00:10:28.086
  49. 00:14:55.728                             : en:00:14:55.728
  50. 00:19:41.514                             : en:00:19:41.514
  51. 00:23:24.320                             : en:00:23:24.320
  52. 00:26:37.846                             : en:00:26:37.846
  53. 00:28:13.442                             : en:00:28:13.442
  54. 00:33:58.203                             : en:00:33:58.203
  55. 00:37:48.600                             : en:00:37:48.600
  56. 00:40:43.358                             : en:00:40:43.358
  57. 00:42:47.482                             : en:00:42:47.482
  58. 00:47:40.524                             : en:00:47:40.524
  59. 00:53:21.323                             : en:00:53:21.323
  60. 00:55:24.029                             : en:00:55:24.029
  61. 01:01:55.045                             : en:01:01:55.045
  62. 01:06:55.678                             : en:01:06:55.678
  63. 01:10:35.565                             : en:01:10:35.565
复制代码

复制代码

德库拉的女儿 Daughter.of.Dracula.1936.1080p.BluRay.x264-SADPANDA 4.38GB-2.jpg






回复

使用道具 举报

懒得打字嘛,点击右侧快捷回复 【右侧内容,后台自定义】
您需要登录后才可以回帖 登录 | 立即加入

本版积分规则

Archiver|小黑屋| 蓝光电影网 |网站地图

Copyright © 2021 Comsenz Inc. Powered by 蓝光电影网

蓝光电影网

本站内容由用户自主分享和转载自互联网,转载目的在于传递更多信息,并不代表本网赞同其观点和对其真实性负责。

如有侵权、违反国家法律政策行为,请联系我们,我们会第一时间及时清除和处理!

举报反馈邮箱:[email protected]

快速回复 返回顶部 返回列表