找回密码

蓝光电影网

查看: 1212|回复: 3

[喜剧] 爱情和香烟 Romance.and.Cigarettes.2005.1080p.BluRay.x264-BRMP 7.94GB

[复制链接]
蓝光币
623
发表于 2018-9-12 11:38:29 | 显示全部楼层 |阅读模式

恋爱和卷烟 Romance.and.Cigarettes.2005.1080p.BluRay.x264-BRMP 7.94GB-1.jpg
◎译  名 恋爱和卷烟
◎片  名 Romance & Cigarettes
◎年  代 2005
◎产  地 美国
◎类  别 笑剧/歌舞/恋爱
◎语  言 英语
◎上映日期 2005-09-06
◎豆瓣评分 6.6/10 from 1,220 users
◎豆瓣链接 https://movie.douban.com/subject/1422916/
◎片  长 105 分钟
◎导  演 约翰·特托罗 John Turturro
◎主  演 詹姆斯·甘多菲尼 James Gandolfini
      苏珊·萨兰登 Susan Sarandon
      凯特·温丝莱特 Kate Winslet
      史蒂夫·布西密 Steve Buscemi
      曼迪·摩尔 Mandy Moore
      克里斯托弗·沃肯 Christopher Walken

◎简  介

  桥梁修建工人尼克?莫德(James Gandolfini 饰)人过中年,对现有原封不动且死板有趣的生活逐步感应厌倦。性感奔放的红发女郎图拉(Kate Winslet 凯特?温斯莱特 饰)当令闯入尼克的天下,他的豪情被重新扑灭,并疯狂迷恋上这个使人捉摸不定的美人。
  尼克的妻子凯蒂(Susan Sarandon 饰)是个坚忍的贤妻良母,她靠剪裁衣服补助家用,还要照顾丈夫和三个叛逆的女儿。尼克的出轨令凯蒂大为失望,随之而来的争持更将他们的婚姻推向破裂的边沿。
  兜兜转转,走走停停,在露珠姻缘磨灭无踪之际,尼克才翻然觉悟,怀念起家的暖和……

◎获奖情况

  第62届威尼斯电影节  (2005)
  主比赛单元 金狮奖 (提名) 约翰·特托罗

  1. Video
  2. ID                                       : 1
  3. Format                                   : AVC
  4. Format/Info                              : Advanced Video Codec
  5. Format profile                           : [url=/cdn-cgi/l/email-protection][email protected][/url]
  6. Format settings                          : CABAC / 5 Ref Frames
  7. Format settings, CABAC                   : Yes
  8. Format settings, ReFrames                : 5 frames
  9. Codec ID                                 : V_MPEG4/ISO/AVC
  10. Duration                                 : 1 h 41 min
  11. Bit rate                                 : 9 650 kb/s
  12. Width                                    : 1 920 pixels
  13. Height                                   : 824 pixels
  14. Display aspect ratio                     : 2.35:1
  15. Frame rate mode                          : Constant
  16. Frame rate                               : 25.000 FPS
  17. Color space                              : YUV
  18. Chroma subsampling                       : 4:2:0
  19. Bit depth                                : 8 bits
  20. Scan type                                : Progressive
  21. Bits/(Pixel*Frame)                       : 0.244
  22. Stream size                              : 6.71 GiB (84%)
  23. Writing library                          : x264 core 128 r2216 198a7ea
  24. Encoding settings                        : cabac=1 / ref=5 / deblock=1:0:0 / analyse=0x3:0x133 / me=umh / subme=7 / psy=1 / psy_rd=1.00:0.00 / mixed_ref=1 / me_range=16 / chroma_me=1 / trellis=1 / 8x8dct=1 / cqm=0 / deadzone=21,11 / fast_pskip=0 / chroma_qp_offset=-2 / threads=12 / lookahead_threads=2 / sliced_threads=0 / nr=0 / decimate=1 / interlaced=0 / bluray_compat=0 / constrained_intra=0 / bframes=3 / b_pyramid=2 / b_adapt=1 / b_bias=0 / direct=1 / weightb=1 / open_gop=0 / weightp=2 / keyint=250 / keyint_min=25 / scenecut=40 / intra_refresh=0 / rc_lookahead=40 / rc=2pass / mbtree=1 / bitrate=9650 / ratetol=1.0 / qcomp=0.60 / qpmin=0 / qpmax=69 / qpstep=4 / cplxblur=20.0 / qblur=0.5 / ip_ratio=1.40 / aq=1:1.00
  25. Language                                 : English
  26. Default                                  : Yes
  27. Forced                                   : No

  28. Audio
  29. ID                                       : 2
  30. Format                                   : DTS
  31. Format/Info                              : Digital Theater Systems
  32. Codec ID                                 : A_DTS
  33. Duration                                 : 1 h 41 min
  34. Bit rate mode                            : Constant
  35. Bit rate                                 : 1 509 kb/s
  36. Channel(s)                               : 6 channels
  37. Channel positions                        : Front: L C R, Side: L R, LFE
  38. Sampling rate                            : 48.0 kHz
  39. Frame rate                               : 93.750 FPS (512 SPF)
  40. Bit depth                                : 24 bits
  41. Compression mode                         : Lossy
  42. Stream size                              : 1.07 GiB (14%)
  43. Default                                  : Yes
  44. Forced                                   : No
复制代码

复制代码

恋爱和卷烟 Romance.and.Cigarettes.2005.1080p.BluRay.x264-BRMP 7.94GB-2.png 恋爱和卷烟 Romance.and.Cigarettes.2005.1080p.BluRay.x264-BRMP 7.94GB-3.png 恋爱和卷烟 Romance.and.Cigarettes.2005.1080p.BluRay.x264-BRMP 7.94GB-4.png




回复

使用道具 举报

懒得打字嘛,点击右侧快捷回复 【右侧内容,后台自定义】
您需要登录后才可以回帖 登录 | 立即加入

本版积分规则

Archiver|小黑屋| 蓝光电影网 |网站地图

Copyright © 2021 Comsenz Inc. Powered by 蓝光电影网

蓝光电影网

本站内容由用户自主分享和转载自互联网,转载目的在于传递更多信息,并不代表本网赞同其观点和对其真实性负责。

如有侵权、违反国家法律政策行为,请联系我们,我们会第一时间及时清除和处理!

举报反馈邮箱:[email protected]

快速回复 返回顶部 返回列表