找回密码

蓝光电影网

查看: 996|回复: 3

[剧情] 傻瓜回忆录/旧爱还是最美 Flashbacks.Of.A.Fool.2008.1080p.Bluray.x264-BRMP 7.94GB

[复制链接]
蓝光币
623
发表于 2018-9-12 11:45:05 | 显示全部楼层 |阅读模式

傻瓜回忆录/旧爱还是最美 Flashbacks.Of.A.Fool.2008.1080p.Bluray.x264-BRMP 7.94GB-1.jpg
◎译  名 傻瓜回忆录/旧爱,还是最美
◎片  名 Flashbacks of a Fool
◎年  代 2008
◎产  地 英国
◎类  别 剧情
◎语  言 英语
◎上映日期 2008-04-13
◎豆瓣评分 6.8/10 from 1,742 users
◎豆瓣链接 https://movie.douban.com/subject/2082015/
◎片  长 110分钟
◎导  演 Baillie Walsh
◎主  演 Emile Robert
      Scoutt Lowe
      丹尼尔·克雷格 Daniel Craig
      朱莉·奥登 Julie Ordon
      Gina Athans
      Erich Conrad
      Eve
      艾米莉娅·福克斯 Emilia Fox
      Annabel Linder
      Angie Ruiz
      Sue Dall
      马克·斯特朗 Mark Strong
      Pope Jerrod
      Darron Meyer
      哈利·艾登 Harry Eden
      费莉西蒂·琼斯 Felicity Jones

◎简  介

  过气的好莱坞名星乔伊·斯科特(丹尼尔·克雷格 Daniel Craig 饰)在位于马布里海滩的豪宅内单独生活,来这里的客人除了妓女就是毒贩。他的生活似乎堕入了万劫不复的泥潭,新欢留下了一只活该的狗害他心乱如麻,唯一还可以和他交换的女佣因没法忍受他腐败的生活决议告退,连他的掮客人也对他冷言冷语甚至间接炒他的鱿鱼。正当他的生活堕入史无前例的困窘之时却意外接到他母亲的电话,电话里奉告他童年玩伴博茨的死讯。乔伊放下电话,心里难以安静,他的脑海里起头出现关于自己少年时代的各种记忆。当他回抵故乡今后,发现那边已是事过境迁。
  本片由新任007丹尼尔·克雷格主演并担任制片。

  1. Video
  2. ID                                       : 1
  3. Format                                   : AVC
  4. Format/Info                              : Advanced Video Codec
  5. Format profile                           : [url=/cdn-cgi/l/email-protection][email protected][/url]
  6. Format settings                          : CABAC / 5 Ref Frames
  7. Format settings, CABAC                   : Yes
  8. Format settings, ReFrames                : 5 frames
  9. Codec ID                                 : V_MPEG4/ISO/AVC
  10. Duration                                 : 1 h 53 min
  11. Bit rate                                 : 9 540 kb/s
  12. Width                                    : 1 920 pixels
  13. Height                                   : 800 pixels
  14. Display aspect ratio                     : 2.40:1
  15. Frame rate mode                          : Constant
  16. Frame rate                               : 23.976 FPS
  17. Color space                              : YUV
  18. Chroma subsampling                       : 4:2:0
  19. Bit depth                                : 8 bits
  20. Scan type                                : Progressive
  21. Bits/(Pixel*Frame)                       : 0.259
  22. Stream size                              : 7.43 GiB (94%)
  23. Writing library                          : x264 core 96 r1613 81e75e9
  24. Encoding settings                        : cabac=1 / ref=5 / deblock=1:0:0 / analyse=0x3:0x133 / me=umh / subme=7 / psy=1 / psy_rd=1.00:0.00 / mixed_ref=1 / me_range=16 / chroma_me=1 / trellis=1 / 8x8dct=1 / cqm=0 / deadzone=21,11 / fast_pskip=0 / chroma_qp_offset=-2 / threads=3 / sliced_threads=0 / nr=0 / decimate=1 / interlaced=0 / constrained_intra=0 / bframes=3 / b_pyramid=2 / b_adapt=1 / b_bias=0 / direct=1 / weightb=1 / weightp=2 / keyint=250 / keyint_min=25 / scenecut=40 / intra_refresh=0 / rc_lookahead=40 / rc=2pass / mbtree=1 / bitrate=9540 / ratetol=1.0 / qcomp=0.60 / qpmin=10 / qpmax=51 / qpstep=4 / cplxblur=20.0 / qblur=0.5 / ip_ratio=1.40 / aq=1:1.00
  25. Language                                 : English
  26. Default                                  : No
  27. Forced                                   : No

  28. Audio
  29. ID                                       : 2
  30. Format                                   : AC-3
  31. Format/Info                              : Audio Coding 3
  32. Codec ID                                 : A_AC3
  33. Duration                                 : 1 h 53 min
  34. Bit rate mode                            : Constant
  35. Bit rate                                 : 448 kb/s
  36. Channel(s)                               : 6 channels
  37. Channel positions                        : Front: L C R, Side: L R, LFE
  38. Sampling rate                            : 48.0 kHz
  39. Frame rate                               : 31.250 FPS (1536 SPF)
  40. Bit depth                                : 16 bits
  41. Compression mode                         : Lossy
  42. Stream size                              : 365 MiB (4%)
  43. Language                                 : English
  44. Service kind                             : Complete Main
  45. Default                                  : Yes
  46. Forced                                   : No
复制代码

复制代码

傻瓜回忆录/旧爱还是最美 Flashbacks.Of.A.Fool.2008.1080p.Bluray.x264-BRMP 7.94GB-2.png 傻瓜回忆录/旧爱还是最美 Flashbacks.Of.A.Fool.2008.1080p.Bluray.x264-BRMP 7.94GB-3.png 傻瓜回忆录/旧爱还是最美 Flashbacks.Of.A.Fool.2008.1080p.Bluray.x264-BRMP 7.94GB-4.png






回复

使用道具 举报

懒得打字嘛,点击右侧快捷回复 【右侧内容,后台自定义】
您需要登录后才可以回帖 登录 | 立即加入

本版积分规则

Archiver|小黑屋| 蓝光电影网 |网站地图

Copyright © 2021 Comsenz Inc. Powered by 蓝光电影网

蓝光电影网

本站内容由用户自主分享和转载自互联网,转载目的在于传递更多信息,并不代表本网赞同其观点和对其真实性负责。

如有侵权、违反国家法律政策行为,请联系我们,我们会第一时间及时清除和处理!

举报反馈邮箱:[email protected]

快速回复 返回顶部 返回列表