找回密码

蓝光电影网

查看: 1285|回复: 6

[喜剧] 爱疯狂/我心疯狂 Crazy.2005.1080p.Bluray.X264-BRMP 10.13GB

[复制链接]
蓝光币
623
发表于 2018-9-12 11:45:27 | 显示全部楼层 |阅读模式

爱疯狂/我心疯狂 Crazy.2005.1080p.Bluray.X264-BRMP 10.13GB-1.jpg
◎译  名 爱疯狂/我心疯狂
◎片  名 C.R.A.Z.Y.
◎年  代 2005
◎产  地 加拿大
◎类  别 笑剧/同性/家庭
◎语  言 法语
◎上映日期 2005-05-27
◎豆瓣评分 8.1/10 from 5,302 users
◎豆瓣链接 https://movie.douban.com/subject/1456503/
◎片  长 Canada: 127 分钟(Québec)/Argentina: 127 分钟(Mar del Plata Film Festival)
◎导  演 让-马克·瓦雷 Jean-Marc Vallée
◎主  演 Michel C?té
      马克-安德烈·格隆丁 Marc-André Grondin
      Danielle Proulx
      émile Vallée
      Pierre-Luc Brillant

◎简  介

  本片报告了一个家庭30多年的离合悲欢,以其中一个孩子Zac为主线,由于他游离于同性恋和双性恋之间。这部作品完全分歧于其他的同性恋电影,直到影片最初,你能够也不会有一个终极的判定。可是那种家庭的亲情,怙恃兄弟姐妹情人之间的爱和抵触,却让人不能不心生感动。片名C.R.A.Z.Y.是家里五个男孩名字的首字母:Christian, Raymond, Antoine, Zac, Yvan.
  影片中的一段故事,说有一小我很信仰天主,他天天行走,死后会留下两串脚印,一串是自己的,另一串是天主的。可是在他最困苦的时辰,他发现自己死后只要一行脚印。等他摆脱了困苦后,他诘责天主,“为什么说和我同在,却在我最需要你的时辰分开我?”天主回答说,“在你最困苦的时辰,你看到只要一行脚印,那是由因而我背负着你前行。”
  这是加拿大选送加入2006年奥斯卡最好外语片的电影,该片共获得包括多伦多电影节最受观众接待奖在内的巨细奖项总计37项。

  1. Video
  2. ID                                       : 1
  3. Format                                   : AVC
  4. Format/Info                              : Advanced Video Codec
  5. Format profile                           : [url=/cdn-cgi/l/email-protection][email protected][/url]
  6. Format settings                          : CABAC / 4 Ref Frames
  7. Format settings, CABAC                   : Yes
  8. Format settings, ReFrames                : 4 frames
  9. Codec ID                                 : V_MPEG4/ISO/AVC
  10. Duration                                 : 2 h 6 min
  11. Bit rate                                 : 11.0 Mb/s
  12. Width                                    : 1 920 pixels
  13. Height                                   : 1 080 pixels
  14. Display aspect ratio                     : 16:9
  15. Frame rate mode                          : Constant
  16. Frame rate                               : 23.976 (23976/1000) FPS
  17. Color space                              : YUV
  18. Chroma subsampling                       : 4:2:0
  19. Bit depth                                : 8 bits
  20. Scan type                                : Progressive
  21. Bits/(Pixel*Frame)                       : 0.221
  22. Stream size                              : 9.53 GiB (94%)
  23. Writing library                          : x264 core 98 r1649 20cbe10
  24. Encoding settings                        : cabac=1 / ref=4 / deblock=1:0:0 / analyse=0x3:0x133 / me=umh / subme=7 / psy=1 / psy_rd=1.00:0.00 / mixed_ref=1 / me_range=16 / chroma_me=1 / trellis=1 / 8x8dct=1 / cqm=0 / deadzone=21,11 / fast_pskip=0 / chroma_qp_offset=-2 / threads=12 / sliced_threads=0 / nr=0 / decimate=1 / interlaced=0 / constrained_intra=0 / bframes=3 / b_pyramid=2 / b_adapt=1 / b_bias=0 / direct=1 / weightb=1 / weightp=2 / keyint=250 / keyint_min=25 / scenecut=40 / intra_refresh=0 / rc_lookahead=40 / rc=2pass / mbtree=1 / bitrate=10975 / ratetol=1.0 / qcomp=0.60 / qpmin=10 / qpmax=51 / qpstep=4 / cplxblur=20.0 / qblur=0.5 / ip_ratio=1.40 / aq=1:1.00
  25. Language                                 : English
  26. Default                                  : No
  27. Forced                                   : No

  28. Audio
  29. ID                                       : 3
  30. Format                                   : AC-3
  31. Format/Info                              : Audio Coding 3
  32. Codec ID                                 : A_AC3
  33. Duration                                 : 2 h 6 min
  34. Bit rate mode                            : Constant
  35. Bit rate                                 : 448 kb/s
  36. Channel(s)                               : 6 channels
  37. Channel positions                        : Front: L C R, Side: L R, LFE
  38. Sampling rate                            : 48.0 kHz
  39. Frame rate                               : 31.250 FPS (1536 SPF)
  40. Bit depth                                : 16 bits
  41. Compression mode                         : Lossy
  42. Stream size                              : 407 MiB (4%)
  43. Service kind                             : Complete Main
  44. Default                                  : Yes
  45. Forced                                   : No

  46. Text
  47. ID                                       : 2
  48. Format                                   : UTF-8
  49. Codec ID                                 : S_TEXT/UTF8
  50. Codec ID/Info                            : UTF-8 Plain Text
  51. Language                                 : English
  52. Default                                  : Yes
  53. Forced                                   : No
复制代码

复制代码

爱疯狂/我心疯狂 Crazy.2005.1080p.Bluray.X264-BRMP 10.13GB-2.png 爱疯狂/我心疯狂 Crazy.2005.1080p.Bluray.X264-BRMP 10.13GB-3.png 爱疯狂/我心疯狂 Crazy.2005.1080p.Bluray.X264-BRMP 10.13GB-4.png






回复

使用道具 举报

懒得打字嘛,点击右侧快捷回复 【右侧内容,后台自定义】
您需要登录后才可以回帖 登录 | 立即加入

本版积分规则

Archiver|小黑屋| 蓝光电影网 |网站地图

Copyright © 2021 Comsenz Inc. Powered by 蓝光电影网

蓝光电影网

本站内容由用户自主分享和转载自互联网,转载目的在于传递更多信息,并不代表本网赞同其观点和对其真实性负责。

如有侵权、违反国家法律政策行为,请联系我们,我们会第一时间及时清除和处理!

举报反馈邮箱:[email protected]

快速回复 返回顶部 返回列表