找回密码

蓝光电影网

查看: 4221|回复: 2

[剧情] 海明威与盖尔霍恩/恋上海明威 Hemingway.And.Gellhorn.2012.1080p.BluRay.x264-BRMP 12.03GB

[复制链接]
蓝光币
682
发表于 2018-9-12 11:46:38 | 显示全部楼层 |阅读模式


◎译  名 海明威与盖尔霍恩/恋上海明威(台)
◎片  名 Hemingway & Gellhorn
◎年  代 2012
◎产  地 美国
◎类  别 剧情/恋爱/列传
◎语  言 英语
◎上映日期 2012-05-28(美国)
◎豆瓣评分 6.6/10 from 2,916 users
◎豆瓣链接 https://movie.douban.com/subject/2127789/
◎片  长 155分钟
◎导  演 菲利普·考夫曼 Philip Kaufman
◎主  演 克里夫·欧文 Clive Owen
      妮可·基德曼 Nicole Kidman
      罗伯特·杜瓦尔 Robert Duvall
      康妮·尼尔森 Connie Nielsen
      罗德里格·桑托罗 Rodrigo Santoro
      帕克·波西 Parker Posey
      莫莉·帕克 Molly Parker
      陈冲 Joan Chen
      托尼·夏尔赫布 Tony Shalhoub
      大卫·斯特雷泽恩 David Strathairn

◎简  介

  影片故事首要聚焦海明威同其第三任妻子盖尔霍恩的感情纠葛,克里夫·欧文饰演欧内斯特·海明威,妮可·基德曼饰演他的妻子、也是著名的战地记者玛莎·盖尔霍恩。 海明威与玛莎·盖尔霍恩相遇于1936年、一间名为Key West的小酒馆中,他们1940年成婚,在欧洲蜜月观光时代写出了他的名著《丧钟为谁而鸣》。不外,二人都专注于自己的记者奇迹,聚少离多让二人于1945年仳离。

  1. Video
  2. ID                                       : 1
  3. Format                                   : AVC
  4. Format/Info                              : Advanced Video Codec
  5. Format profile                           : [url=/cdn-cgi/l/email-protection][email protected][/url]
  6. Format settings, CABAC                   : Yes
  7. Format settings, ReFrames                : 4 frames
  8. Codec ID                                 : V_MPEG4/ISO/AVC
  9. Duration                                 : 2h 34mn
  10. Bit rate                                 : 9 615 Kbps
  11. Width                                    : 1 920 pixels
  12. Height                                   : 1 080 pixels
  13. Display aspect ratio                     : 16:9
  14. Frame rate mode                          : Constant
  15. Frame rate                               : 23.976 (24000/1001) fps
  16. Color space                              : YUV
  17. Chroma subsampling                       : 4:2:0
  18. Bit depth                                : 8 bits
  19. Scan type                                : Progressive
  20. Bits/(Pixel*Frame)                       : 0.193
  21. Stream size                              : 10.2 GiB (84%)
  22. Writing library                          : x264 core 130 r2273 b3065e6
  23. Encoding settings                        : cabac=1 / ref=4 / deblock=1:0:0 / analyse=0x3:0x133 / me=umh / subme=7 / psy=1 / psy_rd=1.00:0.00 / mixed_ref=1 / me_range=16 / chroma_me=1 / trellis=1 / 8x8dct=1 / cqm=0 / deadzone=21,11 / fast_pskip=0 / chroma_qp_offset=-2 / threads=12 / lookahead_threads=2 / sliced_threads=0 / nr=0 / decimate=1 / interlaced=0 / bluray_compat=0 / constrained_intra=0 / bframes=3 / b_pyramid=2 / b_adapt=1 / b_bias=0 / direct=1 / weightb=1 / open_gop=0 / weightp=2 / keyint=240 / keyint_min=23 / scenecut=40 / intra_refresh=0 / rc_lookahead=40 / rc=2pass / mbtree=1 / bitrate=9615 / ratetol=1.0 / qcomp=0.60 / qpmin=0 / qpmax=69 / qpstep=4 / cplxblur=20.0 / qblur=0.5 / vbv_maxrate=62500 / vbv_bufsize=78125 / nal_hrd=none / ip_ratio=1.40 / aq=1:1.00
  24. Language                                 : English
  25. Default                                  : Yes
  26. Forced                                   : No

  27. Audio
  28. ID                                       : 2
  29. Format                                   : DTS
  30. Format/Info                              : Digital Theater Systems
  31. Mode                                     : 16
  32. Format settings, Endianness              : Big
  33. Codec ID                                 : A_DTS
  34. Duration                                 : 2h 34mn
  35. Bit rate mode                            : Constant
  36. Bit rate                                 : 1 509 Kbps
  37. Channel(s)                               : 6 channels
  38. Channel positions                        : Front: L C R, Side: L R, LFE
  39. Sampling rate                            : 48.0 KHz
  40. Frame rate                               : 93.750 fps (512 spf)
  41. Bit depth                                : 24 bits
  42. Compression mode                         : Lossy
  43. Stream size                              : 1.63 GiB (14%)
  44. Language                                 : English
  45. Default                                  : Yes
  46. Forced                                   : No

  47. Text #1
  48. ID                                       : 3
  49. Format                                   : UTF-8
  50. Codec ID                                 : S_TEXT/UTF8
  51. Codec ID/Info                            : UTF-8 Plain Text
  52. Language                                 : English
  53. Default                                  : Yes
  54. Forced                                   : No

  55. Text #2
  56. ID                                       : 4
  57. Format                                   : UTF-8
  58. Codec ID                                 : S_TEXT/UTF8
  59. Codec ID/Info                            : UTF-8 Plain Text
  60. Language                                 : French
  61. Default                                  : No
  62. Forced                                   : No

  63. Text #3
  64. ID                                       : 5
  65. Format                                   : UTF-8
  66. Codec ID                                 : S_TEXT/UTF8
  67. Codec ID/Info                            : UTF-8 Plain Text
  68. Language                                 : Spanish
  69. Default                                  : No
  70. Forced                                   : No
复制代码

复制代码








回复

使用道具 举报

懒得打字嘛,点击右侧快捷回复 【右侧内容,后台自定义】
您需要登录后才可以回帖 登录 | 立即加入

本版积分规则

Archiver|小黑屋| 蓝光电影网 |网站地图

Copyright © 2021 Comsenz Inc. Powered by 蓝光电影网

蓝光电影网

本站内容由用户自主分享和转载自互联网,转载目的在于传递更多信息,并不代表本网赞同其观点和对其真实性负责。

如有侵权、违反国家法律政策行为,请联系我们,我们会第一时间及时清除和处理!

举报反馈邮箱:[email protected]

快速回复 返回顶部 返回列表