找回密码

蓝光电影网

查看: 4157|回复: 2

[冒险] 征服四海/克里斯托弗·哥伦布:发现新大陆 Christopher.Columbus.The.Discovery.1992.1080p.BluRay.x264-BRMP 9.84GB

[复制链接]
蓝光币
623
发表于 2018-9-12 11:47:16 | 显示全部楼层 |阅读模式

征服四海/克里斯托弗·哥伦布:发现新大陆 Christopher.Columbus.The.Discovery.1992.1080p.BluRay.x264-BRMP 9.84GB-1.jpg
◎译  名 征服四海/克里斯托弗·哥伦布:发现新大陆
◎片  名 Christopher Columbus: The Discovery
◎年  代 1992
◎产  地 英国/美国/西班牙
◎类  别 冒险/列传/历史
◎语  言 英语
◎上映日期 1992-08-20
◎豆瓣评分 6.6/10 from 57 users
◎豆瓣链接 https://movie.douban.com/subject/1300140/
◎片  长 120 分钟
◎导  演 约翰 格伦(II) (John Glen (II))
◎主  演 马龙·白兰度 Marlon Brando
      汤姆·塞立克 Tom Selleck
      雷切尔·沃德 Rachel Ward
      乔治斯·科拉菲斯 Georges Corraface
      凯瑟琳·泽塔-琼斯 Catherine Zeta-Jones
      罗伯特·戴维 Robert Davi
      奥利弗·科顿 Oliver Cotton
      本尼西奥·德尔·托罗 Benicio Del Toro
      马修·加里瑞 Mathieu Carrière

◎简  介

  影片《征服四海》报告哥伦布(乔治斯·科拉菲斯 饰)已经的奇异航海过程的故事。哥伦布在航海的门路上碰到了很多题目,履历过生死边沿,在自己的尽力中,他终极完成了心目中的航海过程。

  1. Video
  2. ID                                       : 1
  3. Format                                   : AVC
  4. Format/Info                              : Advanced Video Codec
  5. Format profile                           : [url=/cdn-cgi/l/email-protection][email protected][/url]
  6. Format settings                          : CABAC / 5 Ref Frames
  7. Format settings, CABAC                   : Yes
  8. Format settings, ReFrames                : 5 frames
  9. Codec ID                                 : V_MPEG4/ISO/AVC
  10. Duration                                 : 1 h 55 min
  11. Bit rate                                 : 10.7 Mb/s
  12. Width                                    : 1 920 pixels
  13. Height                                   : 808 pixels
  14. Display aspect ratio                     : 2.40:1
  15. Frame rate mode                          : Constant
  16. Frame rate                               : 25.000 FPS
  17. Color space                              : YUV
  18. Chroma subsampling                       : 4:2:0
  19. Bit depth                                : 8 bits
  20. Scan type                                : Progressive
  21. Bits/(Pixel*Frame)                       : 0.275
  22. Stream size                              : 8.42 GiB (86%)
  23. Writing library                          : x264 core 114 r1900 60ef1f8
  24. Encoding settings                        : cabac=1 / ref=5 / deblock=1:0:0 / analyse=0x3:0x133 / me=umh / subme=7 / psy=1 / psy_rd=1.00:0.00 / mixed_ref=1 / me_range=16 / chroma_me=1 / trellis=1 / 8x8dct=1 / cqm=0 / deadzone=21,11 / fast_pskip=0 / chroma_qp_offset=-2 / threads=12 / sliced_threads=0 / nr=0 / decimate=1 / interlaced=0 / constrained_intra=0 / bframes=3 / b_pyramid=2 / b_adapt=1 / b_bias=0 / direct=1 / weightb=1 / open_gop=0 / weightp=2 / keyint=250 / keyint_min=25 / scenecut=40 / intra_refresh=0 / rc_lookahead=40 / rc=2pass / mbtree=1 / bitrate=10672 / ratetol=1.0 / qcomp=0.60 / qpmin=10 / qpmax=51 / qpstep=4 / cplxblur=20.0 / qblur=0.5 / ip_ratio=1.40 / aq=1:1.00
  25. Language                                 : English
  26. Default                                  : Yes
  27. Forced                                   : No

  28. Audio
  29. ID                                       : 2
  30. Format                                   : DTS
  31. Format/Info                              : Digital Theater Systems
  32. Codec ID                                 : A_DTS
  33. Duration                                 : 1 h 55 min
  34. Bit rate mode                            : Constant
  35. Bit rate                                 : 1 509 kb/s
  36. Channel(s)                               : 2 channels
  37. Channel positions                        : Front: L R
  38. Sampling rate                            : 48.0 kHz
  39. Frame rate                               : 93.750 FPS (512 SPF)
  40. Bit depth                                : 16 bits
  41. Compression mode                         : Lossy
  42. Stream size                              : 1.22 GiB (12%)
  43. Language                                 : English
  44. Default                                  : Yes
  45. Forced                                   : No
复制代码

复制代码

征服四海/克里斯托弗·哥伦布:发现新大陆 Christopher.Columbus.The.Discovery.1992.1080p.BluRay.x264-BRMP 9.84GB-2.png 征服四海/克里斯托弗·哥伦布:发现新大陆 Christopher.Columbus.The.Discovery.1992.1080p.BluRay.x264-BRMP 9.84GB-3.png 征服四海/克里斯托弗·哥伦布:发现新大陆 Christopher.Columbus.The.Discovery.1992.1080p.BluRay.x264-BRMP 9.84GB-4.png







回复

使用道具 举报

懒得打字嘛,点击右侧快捷回复 【右侧内容,后台自定义】
您需要登录后才可以回帖 登录 | 立即加入

本版积分规则

Archiver|小黑屋| 蓝光电影网 |网站地图

Copyright © 2021 Comsenz Inc. Powered by 蓝光电影网

蓝光电影网

本站内容由用户自主分享和转载自互联网,转载目的在于传递更多信息,并不代表本网赞同其观点和对其真实性负责。

如有侵权、违反国家法律政策行为,请联系我们,我们会第一时间及时清除和处理!

举报反馈邮箱:[email protected]

快速回复 返回顶部 返回列表