找回密码

蓝光电影网

查看: 951|回复: 2

[恐怖] 兔头男 Bunnyman.2011.1080p.BluRay.x264-BRMP 6.56GB

[复制链接]
蓝光币
623
发表于 2018-9-12 11:48:07 | 显示全部楼层 |阅读模式


◎译  名 兔头男
◎片  名 Bunnyman
◎年  代 2009
◎产  地 美国
◎类  别 可骇
◎语  言 英语
◎豆瓣评分 /10 from 0 users
◎豆瓣链接 https://movie.douban.com/subject/3292145/
◎片  长 USA: 90 分钟
◎导  演 Carl Lindbergh
◎主  演 Lucia Sullivan
      Matthew Stiller
      Matthew Philips
      Alaina Gianci
      CHERYL TEXIERA
      Rosie Tisch

◎简  介

  Driving through the remote regions of Southern California, a group of friends are forced into a sickening game of cat and mouse, with a five ton dump truck. When looking for help, they stumble upon a family of cannibals, who take pleasure dismembering and eating as many of the kids as possible.
  The lucky few who escape, now must answer to the head of the cannibalistic family, a horribly disfigured man, simply known as Bunnyman. Consumed by rage, he hides his demons behind a bunny suit. He lures in his victims with a cute bunny costume, only to torture them with his weapon of choice, a chainsaw.
  From filmmaker Carl Lindberg (Shattered Lives) comes this year's most bizarre and hardcore horror film where nothing is sacred. You've been warned.
  When a group of young friends returning home from a weekend trip in Las Vegas drives through the isolated regions of southern California, they're terrorized and detoured by someone in a large dump truck. While searching for help, the crew encounters a backwoods family, which is led by a deranged maniac dressed in a bunny suit, intent on killing and cannibalizing them. Cheryl Texiera, Matthew Albrecht, Alaina Gianci, and Veronica Wylie star. 89 min. Widescreen (Enhanced); Soundtrack: English Dolby Digital 5.1; behind-the-scenes footage; featurettes; audio commentary; deleted scenes; interviews; photo gallery.

  1. Video
  2. ID                                       : 1
  3. Format                                   : AVC
  4. Format/Info                              : Advanced Video Codec
  5. Format profile                           : [url=/cdn-cgi/l/email-protection][email protected][/url]
  6. Format settings                          : CABAC / 5 Ref Frames
  7. Format settings, CABAC                   : Yes
  8. Format settings, ReFrames                : 5 frames
  9. Codec ID                                 : V_MPEG4/ISO/AVC
  10. Duration                                 : 1 h 22 min
  11. Bit rate                                 : 9 809 kb/s
  12. Width                                    : 1 920 pixels
  13. Height                                   : 816 pixels
  14. Display aspect ratio                     : 2.35:1
  15. Frame rate mode                          : Constant
  16. Frame rate                               : 23.976 (24000/1001) FPS
  17. Color space                              : YUV
  18. Chroma subsampling                       : 4:2:0
  19. Bit depth                                : 8 bits
  20. Scan type                                : Progressive
  21. Bits/(Pixel*Frame)                       : 0.261
  22. Stream size                              : 5.55 GiB (85%)
  23. Writing library                          : x264 core 130 r2273 b3065e6
  24. Encoding settings                        : cabac=1 / ref=5 / deblock=1:0:0 / analyse=0x3:0x133 / me=umh / subme=7 / psy=1 / psy_rd=1.00:0.00 / mixed_ref=1 / me_range=16 / chroma_me=1 / trellis=1 / 8x8dct=1 / cqm=0 / deadzone=21,11 / fast_pskip=0 / chroma_qp_offset=-2 / threads=12 / lookahead_threads=2 / sliced_threads=0 / nr=0 / decimate=1 / interlaced=0 / bluray_compat=0 / constrained_intra=0 / bframes=3 / b_pyramid=2 / b_adapt=1 / b_bias=0 / direct=1 / weightb=1 / open_gop=0 / weightp=2 / keyint=240 / keyint_min=23 / scenecut=40 / intra_refresh=0 / rc_lookahead=40 / rc=2pass / mbtree=1 / bitrate=9809 / ratetol=1.0 / qcomp=0.60 / qpmin=0 / qpmax=69 / qpstep=4 / cplxblur=20.0 / qblur=0.5 / ip_ratio=1.40 / aq=1:1.00
  25. Language                                 : English
  26. Default                                  : Yes
  27. Forced                                   : No

  28. Audio
  29. ID                                       : 2
  30. Format                                   : DTS
  31. Format/Info                              : Digital Theater Systems
  32. Codec ID                                 : A_DTS
  33. Duration                                 : 1 h 22 min
  34. Bit rate mode                            : Constant
  35. Bit rate                                 : 1 509 kb/s
  36. Channel(s)                               : 6 channels
  37. Channel positions                        : Front: L C R, Side: L R, LFE
  38. Sampling rate                            : 48.0 kHz
  39. Frame rate                               : 93.750 FPS (512 SPF)
  40. Bit depth                                : 24 bits
  41. Compression mode                         : Lossy
  42. Stream size                              : 896 MiB (13%)
  43. Language                                 : English
  44. Default                                  : Yes
  45. Forced                                   : No
复制代码

复制代码








回复

使用道具 举报

懒得打字嘛,点击右侧快捷回复 【右侧内容,后台自定义】
您需要登录后才可以回帖 登录 | 立即加入

本版积分规则

Archiver|小黑屋| 蓝光电影网 |网站地图

Copyright © 2021 Comsenz Inc. Powered by 蓝光电影网

蓝光电影网

本站内容由用户自主分享和转载自互联网,转载目的在于传递更多信息,并不代表本网赞同其观点和对其真实性负责。

如有侵权、违反国家法律政策行为,请联系我们,我们会第一时间及时清除和处理!

举报反馈邮箱:[email protected]

快速回复 返回顶部 返回列表