找回密码

蓝光电影网

查看: 785|回复: 1

[恐怖] 克莉丝汀魅力/魅力姬丝汀 Christine.1983.REMASTERED.1080p.BluRay.x264.TrueHD.7.1.Atmos-SWTYBLZ 16.19GB

[复制链接]
蓝光币
623
发表于 2018-9-12 11:48:29 | 显示全部楼层 |阅读模式


◎译  名 克莉丝汀魅力/魅力姬丝汀
◎片  名 Christine
◎年  代 1983
◎产  地 美国
◎类  别 可骇
◎语  言 英语
◎上映日期 1983-12-09
◎豆瓣评分 7.1/10 from 613 users
◎豆瓣链接 https://movie.douban.com/subject/1297421/
◎片  长 110 分钟
◎导  演 约翰·卡朋特 John Carpenter
◎主  演 基斯·戈登 Keith Gordon
      约翰·斯托克韦尔 John Stockwell
      亚历姗卓拉·保罗 Alexandra Paul
      罗伯特·普罗斯基 Robert Prosky
      哈利·戴恩·斯坦通 Harry Dean Stanton
      Christine Belford
      罗伯茨·布洛瑟姆 Roberts Blossom
      William Ostrander
      David Spielberg
      Malcolm Danare
      Steven Tash
      Stuart Charno
      凯利·普雷斯顿 Kelly Preston
      Marc Poppel
      Robert Darnell

◎简  介

  阿尼?科宁汉姆(Keith Gordon 饰)是某所高中内极不起眼的门生,他沉默寡言、木讷外向。怙恃对他没有过量关注,身旁只要女友丽(Alexandra Paul 饰)和洽哥们丹尼斯(John Stockwell 饰),再无其他朋友。
  某天,阿尼看上一辆1958年产的二手普利茅斯?复仇女神(Plymouth Fury),他立即爱上了这辆车,绝不犹豫将其买了下来。可是阿尼的举止渐突变得希奇起来,他不在关心方圆天下,而是将一切留意力都放在这辆名为“克莉丝汀”的车上。当领会到克莉丝汀的布景以后,丽和丹尼斯决议摧毁汽车,拯救阿尼。但是克莉丝汀似乎对挡在她眼前的人绝不包涵……

  1. Video
  2. ID                                       : 1
  3. Format                                   : AVC
  4. Format/Info                              : Advanced Video Codec
  5. Format profile                           : [url=/cdn-cgi/l/email-protection][email protected][/url]
  6. Format settings                          : CABAC / 5 Ref Frames
  7. Format settings, CABAC                   : Yes
  8. Format settings, ReFrames                : 5 frames
  9. Codec ID                                 : V_MPEG4/ISO/AVC
  10. Duration                                 : 1 h 50 min
  11. Bit rate                                 : 16.9 Mb/s
  12. Width                                    : 1 920 pixels
  13. Height                                   : 802 pixels
  14. Display aspect ratio                     : 2.40:1
  15. Frame rate mode                          : Constant
  16. Frame rate                               : 23.976 (24000/1001) FPS
  17. Color space                              : YUV
  18. Chroma subsampling                       : 4:2:0
  19. Bit depth                                : 8 bits
  20. Scan type                                : Progressive
  21. Bits/(Pixel*Frame)                       : 0.456
  22. Stream size                              : 12.9 GiB (80%)
  23. Title                                    : Christine.1983.REMASTERED.1080p.BluRay.x264.TrueHD.7.1.Atmos-SWTYBLZ
  24. Writing library                          : x264 core 155 r2901 7d0ff22
  25. Encoding settings                        : cabac=1 / ref=5 / deblock=1:-1:-1 / analyse=0x3:0x133 / me=umh / subme=10 / psy=1 / psy_rd=1.00:0.15 / mixed_ref=1 / me_range=48 / chroma_me=1 / trellis=2 / 8x8dct=1 / cqm=0 / deadzone=21,11 / fast_pskip=1 / chroma_qp_offset=-3 / threads=25 / lookahead_threads=4 / sliced_threads=0 / nr=0 / decimate=0 / interlaced=0 / bluray_compat=0 / constrained_intra=0 / bframes=8 / b_pyramid=2 / b_adapt=2 / b_bias=0 / direct=3 / weightb=1 / open_gop=0 / weightp=2 / keyint=250 / keyint_min=23 / scenecut=40 / intra_refresh=0 / rc_lookahead=60 / rc=crf / mbtree=1 / crf=17.0 / qcomp=0.60 / qpmin=0 / qpmax=69 / qpstep=4 / ip_ratio=1.40 / aq=1:1.00
  26. Language                                 : English
  27. Default                                  : Yes
  28. Forced                                   : No

  29. Audio #1
  30. ID                                       : 2
  31. Format                                   : TrueHD
  32. Format profile                           : TrueHD+Atmos / TrueHD
  33. Codec ID                                 : A_TRUEHD
  34. Duration                                 : 1 h 50 min
  35. Bit rate mode                            : Variable
  36. Bit rate                                 : 3 362 kb/s
  37. Maximum bit rate                         : 5 004 kb/s
  38. Channel(s)                               : Object Based / 8 channels
  39. Channel positions                        : Object Based / Front: L C R, Side: L R, Back: L R, LFE
  40. Sampling rate                            :  / 48.0 kHz
  41. Frame rate                               : 1 200.000 FPS (40 SPF)
  42. Compression mode                         : Lossless
  43. Stream size                              : 2.58 GiB (16%)
  44. Title                                    : Christine.1983.REMASTERED.1080p.BluRay.x264.TrueHD.7.1.Atmos-SWTYBLZ
  45. Language                                 : English
  46. Default                                  : Yes
  47. Forced                                   : No

  48. Audio #2
  49. ID                                       : 3
  50. Format                                   : AC-3
  51. Format/Info                              : Audio Coding 3
  52. Codec ID                                 : A_AC3
  53. Duration                                 : 1 h 50 min
  54. Bit rate mode                            : Constant
  55. Bit rate                                 : 640 kb/s
  56. Channel(s)                               : 6 channels
  57. Channel positions                        : Front: L C R, Side: L R, LFE
  58. Sampling rate                            : 48.0 kHz
  59. Frame rate                               : 31.250 FPS (1536 SPF)
  60. Bit depth                                : 16 bits
  61. Compression mode                         : Lossy
  62. Stream size                              : 504 MiB (3%)
  63. Title                                    : Christine.1983.REMASTERED.1080p.BluRay.x264.TrueHD.7.1.Atmos-SWTYBLZ
  64. Language                                 : English
  65. Service kind                             : Complete Main
  66. Default                                  : No
  67. Forced                                   : No

  68. Text #1
  69. ID                                       : 4
  70. Format                                   : UTF-8
  71. Codec ID                                 : S_TEXT/UTF8
  72. Codec ID/Info                            : UTF-8 Plain Text
  73. Duration                                 : 1 h 41 min
  74. Bit rate                                 : 36 b/s
  75. Count of elements                        : 828
  76. Stream size                              : 27.2 KiB (0%)
  77. Title                                    : English-SRT
  78. Language                                 : English
  79. Default                                  : Yes
  80. Forced                                   : No

  81. Text #2
  82. ID                                       : 5
  83. Format                                   : PGS
  84. Muxing mode                              : zlib
  85. Codec ID                                 : S_HDMV/PGS
  86. Codec ID/Info                            : Picture based subtitle format used on BDs/HD-DVDs
  87. Duration                                 : 1 h 41 min
  88. Bit rate                                 : 21.2 kb/s
  89. Count of elements                        : 1655
  90. Stream size                              : 15.3 MiB (0%)
  91. Title                                    : English-PGS
  92. Language                                 : English
  93. Default                                  : No
  94. Forced                                   : No

  95. Text #3
  96. ID                                       : 6
  97. Format                                   : PGS
  98. Muxing mode                              : zlib
  99. Codec ID                                 : S_HDMV/PGS
  100. Codec ID/Info                            : Picture based subtitle format used on BDs/HD-DVDs
  101. Duration                                 : 1 h 49 min
  102. Bit rate                                 : 26.7 kb/s
  103. Count of elements                        : 2299
  104. Stream size                              : 20.8 MiB (0%)
  105. Title                                    : English-SDH-PGS
  106. Language                                 : English
  107. Default                                  : No
  108. Forced                                   : No

  109. Text #4
  110. ID                                       : 7
  111. Format                                   : PGS
  112. Muxing mode                              : zlib
  113. Codec ID                                 : S_HDMV/PGS
  114. Codec ID/Info                            : Picture based subtitle format used on BDs/HD-DVDs
  115. Duration                                 : 1 h 41 min
  116. Bit rate                                 : 21.2 kb/s
  117. Count of elements                        : 1661
  118. Stream size                              : 15.3 MiB (0%)
  119. Title                                    : English-PGS
  120. Language                                 : English
  121. Default                                  : No
  122. Forced                                   : No

  123. Text #5
  124. ID                                       : 8
  125. Format                                   : PGS
  126. Muxing mode                              : zlib
  127. Codec ID                                 : S_HDMV/PGS
  128. Codec ID/Info                            : Picture based subtitle format used on BDs/HD-DVDs
  129. Duration                                 : 1 h 49 min
  130. Bit rate                                 : 26.7 kb/s
  131. Count of elements                        : 2299
  132. Stream size                              : 20.8 MiB (0%)
  133. Title                                    : English-SDH-PGS
  134. Language                                 : English
  135. Default                                  : No
  136. Forced                                   : No

  137. Text #6
  138. ID                                       : 9
  139. Format                                   : PGS
  140. Muxing mode                              : zlib
  141. Codec ID                                 : S_HDMV/PGS
  142. Codec ID/Info                            : Picture based subtitle format used on BDs/HD-DVDs
  143. Duration                                 : 1 h 49 min
  144. Bit rate                                 : 16.5 kb/s
  145. Count of elements                        : 1689
  146. Stream size                              : 12.9 MiB (0%)
  147. Title                                    : Chinese-PGS
  148. Language                                 : Chinese
  149. Default                                  : No
  150. Forced                                   : No

  151. Text #7
  152. ID                                       : 10
  153. Format                                   : PGS
  154. Muxing mode                              : zlib
  155. Codec ID                                 : S_HDMV/PGS
  156. Codec ID/Info                            : Picture based subtitle format used on BDs/HD-DVDs
  157. Duration                                 : 1 h 45 min
  158. Bit rate                                 : 17.9 kb/s
  159. Count of elements                        : 1437
  160. Stream size                              : 13.5 MiB (0%)
  161. Title                                    : Dutch-PGS
  162. Language                                 : Dutch
  163. Default                                  : No
  164. Forced                                   : No

  165. Text #8
  166. ID                                       : 11
  167. Format                                   : PGS
  168. Muxing mode                              : zlib
  169. Codec ID                                 : S_HDMV/PGS
  170. Codec ID/Info                            : Picture based subtitle format used on BDs/HD-DVDs
  171. Duration                                 : 1 h 45 min
  172. Bit rate                                 : 19.5 kb/s
  173. Count of elements                        : 1557
  174. Stream size                              : 14.6 MiB (0%)
  175. Title                                    : Finnish-PGS
  176. Language                                 : Finnish
  177. Default                                  : No
  178. Forced                                   : No

  179. Text #9
  180. ID                                       : 12
  181. Format                                   : PGS
  182. Muxing mode                              : zlib
  183. Codec ID                                 : S_HDMV/PGS
  184. Codec ID/Info                            : Picture based subtitle format used on BDs/HD-DVDs
  185. Duration                                 : 1 h 45 min
  186. Bit rate                                 : 21.3 kb/s
  187. Count of elements                        : 1871
  188. Stream size                              : 16.0 MiB (0%)
  189. Title                                    : French-PGS
  190. Language                                 : French
  191. Default                                  : No
  192. Forced                                   : No

  193. Text #10
  194. ID                                       : 13
  195. Format                                   : PGS
  196. Muxing mode                              : zlib
  197. Codec ID                                 : S_HDMV/PGS
  198. Codec ID/Info                            : Picture based subtitle format used on BDs/HD-DVDs
  199. Duration                                 : 1 h 45 min
  200. Bit rate                                 : 22.6 kb/s
  201. Count of elements                        : 1715
  202. Stream size                              : 16.9 MiB (0%)
  203. Title                                    : German-PGS
  204. Language                                 : German
  205. Default                                  : No
  206. Forced                                   : No

  207. Text #11
  208. ID                                       : 14
  209. Format                                   : PGS
  210. Muxing mode                              : zlib
  211. Codec ID                                 : S_HDMV/PGS
  212. Codec ID/Info                            : Picture based subtitle format used on BDs/HD-DVDs
  213. Duration                                 : 1 h 48 min
  214. Bit rate                                 : 16.1 kb/s
  215. Count of elements                        : 1691
  216. Stream size                              : 12.4 MiB (0%)
  217. Title                                    : Hebrew-PGS
  218. Language                                 : Hebrew
  219. Default                                  : No
  220. Forced                                   : No

  221. Text #12
  222. ID                                       : 15
  223. Format                                   : PGS
  224. Muxing mode                              : zlib
  225. Codec ID                                 : S_HDMV/PGS
  226. Codec ID/Info                            : Picture based subtitle format used on BDs/HD-DVDs
  227. Duration                                 : 1 h 48 min
  228. Bit rate                                 : 17.8 kb/s
  229. Count of elements                        : 2191
  230. Stream size                              : 13.8 MiB (0%)
  231. Title                                    : Hindi-PGS
  232. Language                                 : Hindi
  233. Default                                  : No
  234. Forced                                   : No

  235. Text #13
  236. ID                                       : 16
  237. Format                                   : PGS
  238. Muxing mode                              : zlib
  239. Codec ID                                 : S_HDMV/PGS
  240. Codec ID/Info                            : Picture based subtitle format used on BDs/HD-DVDs
  241. Duration                                 : 1 h 45 min
  242. Bit rate                                 : 21.0 kb/s
  243. Count of elements                        : 1703
  244. Stream size                              : 15.7 MiB (0%)
  245. Title                                    : Italian-PGS
  246. Language                                 : Italian
  247. Default                                  : No
  248. Forced                                   : No

  249. Text #14
  250. ID                                       : 17
  251. Format                                   : PGS
  252. Muxing mode                              : zlib
  253. Codec ID                                 : S_HDMV/PGS
  254. Codec ID/Info                            : Picture based subtitle format used on BDs/HD-DVDs
  255. Duration                                 : 1 h 44 min
  256. Bit rate                                 : 13.8 kb/s
  257. Count of elements                        : 1483
  258. Stream size                              : 10.3 MiB (0%)
  259. Title                                    : Japanese-PGS
  260. Language                                 : Japanese
  261. Default                                  : No
  262. Forced                                   : No

  263. Text #15
  264. ID                                       : 18
  265. Format                                   : PGS
  266. Muxing mode                              : zlib
  267. Codec ID                                 : S_HDMV/PGS
  268. Codec ID/Info                            : Picture based subtitle format used on BDs/HD-DVDs
  269. Duration                                 : 1 h 45 min
  270. Bit rate                                 : 15.8 kb/s
  271. Count of elements                        : 1661
  272. Stream size                              : 12.0 MiB (0%)
  273. Title                                    : Korean-PGS
  274. Language                                 : Korean
  275. Default                                  : No
  276. Forced                                   : No

  277. Text #16
  278. ID                                       : 19
  279. Format                                   : PGS
  280. Muxing mode                              : zlib
  281. Codec ID                                 : S_HDMV/PGS
  282. Codec ID/Info                            : Picture based subtitle format used on BDs/HD-DVDs
  283. Duration                                 : 1 h 45 min
  284. Bit rate                                 : 19.6 kb/s
  285. Count of elements                        : 1697
  286. Stream size                              : 14.8 MiB (0%)
  287. Title                                    : Spanish-PGS
  288. Language                                 : Spanish
  289. Default                                  : No
  290. Forced                                   : No

  291. Text #17
  292. ID                                       : 20
  293. Format                                   : PGS
  294. Muxing mode                              : zlib
  295. Codec ID                                 : S_HDMV/PGS
  296. Codec ID/Info                            : Picture based subtitle format used on BDs/HD-DVDs
  297. Duration                                 : 1 h 45 min
  298. Bit rate                                 : 21.4 kb/s
  299. Count of elements                        : 1809
  300. Stream size                              : 16.1 MiB (0%)
  301. Title                                    : Swedish-PGS
  302. Language                                 : Swedish
  303. Default                                  : No
  304. Forced                                   : No

  305. Text #18
  306. ID                                       : 21
  307. Format                                   : PGS
  308. Muxing mode                              : zlib
  309. Codec ID                                 : S_HDMV/PGS
  310. Codec ID/Info                            : Picture based subtitle format used on BDs/HD-DVDs
  311. Duration                                 : 1 h 48 min
  312. Bit rate                                 : 18.3 kb/s
  313. Count of elements                        : 1687
  314. Stream size                              : 14.1 MiB (0%)
  315. Title                                    : Thai-PGS
  316. Language                                 : Thai
  317. Default                                  : No
  318. Forced                                   : No

  319. Menu
  320. 00:00:00.000                             : :Chapter 1
  321. 00:07:54.807                             : :Chapter 2
  322. 00:15:00.733                             : :Chapter 3
  323. 00:20:12.085                             : :Chapter 4
  324. 00:25:41.456                             : :Chapter 5
  325. 00:34:02.165                             : :Chapter 6
  326. 00:41:55.930                             : :Chapter 7
  327. 00:49:12.199                             : :Chapter 8
  328. 00:55:11.391                             : :Chapter 9
  329. 01:01:33.106                             : :Chapter 10
  330. 01:05:57.787                             : :Chapter 11
  331. 01:12:49.406                             : :Chapter 12
  332. 01:17:59.341                             : :Chapter 13
  333. 01:28:31.264                             : :Chapter 14
  334. 01:36:52.223                             : :Chapter 15
  335. 01:45:19.229                             : :Chapter 16
复制代码

复制代码








回复

使用道具 举报

懒得打字嘛,点击右侧快捷回复 【右侧内容,后台自定义】
您需要登录后才可以回帖 登录 | 立即加入

本版积分规则

Archiver|小黑屋| 蓝光电影网 |网站地图

Copyright © 2021 Comsenz Inc. Powered by 蓝光电影网

蓝光电影网

本站内容由用户自主分享和转载自互联网,转载目的在于传递更多信息,并不代表本网赞同其观点和对其真实性负责。

如有侵权、违反国家法律政策行为,请联系我们,我们会第一时间及时清除和处理!

举报反馈邮箱:[email protected]

快速回复 返回顶部 返回列表