找回密码

蓝光电影网

查看: 1982|回复: 4

[恐怖] 克莉丝汀魅力/魅力姬丝汀 Christine.1983.REMASTERED.1080p.BluRay.x264.DTS-SWTYBLZ 14.11GB

[复制链接]
蓝光币
623
发表于 2018-9-12 11:49:05 | 显示全部楼层 |阅读模式

克莉丝汀魅力/魅力姬丝汀 Christine.1983.REMASTERED.1080p.BluRay.x264.DTS-SWTYBLZ 14.11GB-1.jpg
◎译  名 克莉丝汀魅力/魅力姬丝汀
◎片  名 Christine
◎年  代 1983
◎产  地 美国
◎类  别 可骇
◎语  言 英语
◎上映日期 1983-12-09
◎豆瓣评分 7.1/10 from 613 users
◎豆瓣链接 https://movie.douban.com/subject/1297421/
◎片  长 110 分钟
◎导  演 约翰·卡朋特 John Carpenter
◎主  演 基斯·戈登 Keith Gordon
      约翰·斯托克韦尔 John Stockwell
      亚历姗卓拉·保罗 Alexandra Paul
      罗伯特·普罗斯基 Robert Prosky
      哈利·戴恩·斯坦通 Harry Dean Stanton
      Christine Belford
      罗伯茨·布洛瑟姆 Roberts Blossom
      William Ostrander
      David Spielberg
      Malcolm Danare
      Steven Tash
      Stuart Charno
      凯利·普雷斯顿 Kelly Preston
      Marc Poppel
      Robert Darnell

◎简  介

  阿尼?科宁汉姆(Keith Gordon 饰)是某所高中内极不起眼的门生,他沉默寡言、木讷外向。怙恃对他没有过量关注,身旁只要女友丽(Alexandra Paul 饰)和洽哥们丹尼斯(John Stockwell 饰),再无其他朋友。
  某天,阿尼看上一辆1958年产的二手普利茅斯?复仇女神(Plymouth Fury),他立即爱上了这辆车,绝不犹豫将其买了下来。可是阿尼的举止渐突变得希奇起来,他不在关心方圆天下,而是将一切留意力都放在这辆名为“克莉丝汀”的车上。当领会到克莉丝汀的布景以后,丽和丹尼斯决议摧毁汽车,拯救阿尼。但是克莉丝汀似乎对挡在她眼前的人绝不包涵……

  1. Video
  2. ID                                       : 1
  3. Format                                   : AVC
  4. Format/Info                              : Advanced Video Codec
  5. Format profile                           : [url=/cdn-cgi/l/email-protection][email protected][/url]
  6. Format settings                          : CABAC / 5 Ref Frames
  7. Format settings, CABAC                   : Yes
  8. Format settings, ReFrames                : 5 frames
  9. Codec ID                                 : V_MPEG4/ISO/AVC
  10. Duration                                 : 1 h 50 min
  11. Bit rate                                 : 16.9 Mb/s
  12. Width                                    : 1 920 pixels
  13. Height                                   : 802 pixels
  14. Display aspect ratio                     : 2.40:1
  15. Frame rate mode                          : Constant
  16. Frame rate                               : 23.976 (24000/1001) FPS
  17. Color space                              : YUV
  18. Chroma subsampling                       : 4:2:0
  19. Bit depth                                : 8 bits
  20. Scan type                                : Progressive
  21. Bits/(Pixel*Frame)                       : 0.456
  22. Stream size                              : 12.9 GiB (92%)
  23. Title                                    : Christine.1983.REMASTERED.1080p.BluRay.x264.DTS-SWTYBLZ
  24. Writing library                          : x264 core 155 r2901 7d0ff22
  25. Encoding settings                        : cabac=1 / ref=5 / deblock=1:-1:-1 / analyse=0x3:0x133 / me=umh / subme=10 / psy=1 / psy_rd=1.00:0.15 / mixed_ref=1 / me_range=48 / chroma_me=1 / trellis=2 / 8x8dct=1 / cqm=0 / deadzone=21,11 / fast_pskip=1 / chroma_qp_offset=-3 / threads=25 / lookahead_threads=4 / sliced_threads=0 / nr=0 / decimate=0 / interlaced=0 / bluray_compat=0 / constrained_intra=0 / bframes=8 / b_pyramid=2 / b_adapt=2 / b_bias=0 / direct=3 / weightb=1 / open_gop=0 / weightp=2 / keyint=250 / keyint_min=23 / scenecut=40 / intra_refresh=0 / rc_lookahead=60 / rc=crf / mbtree=1 / crf=17.0 / qcomp=0.60 / qpmin=0 / qpmax=69 / qpstep=4 / ip_ratio=1.40 / aq=1:1.00
  26. Language                                 : English
  27. Default                                  : Yes
  28. Forced                                   : No

  29. Audio
  30. ID                                       : 2
  31. Format                                   : DTS
  32. Format/Info                              : Digital Theater Systems
  33. Codec ID                                 : A_DTS
  34. Duration                                 : 1 h 50 min
  35. Bit rate mode                            : Constant
  36. Bit rate                                 : 1 509 kb/s
  37. Channel(s)                               : 6 channels
  38. Channel positions                        : Front: L C R, Side: L R, LFE
  39. Sampling rate                            : 48.0 kHz
  40. Frame rate                               : 93.750 FPS (512 SPF)
  41. Bit depth                                : 24 bits
  42. Compression mode                         : Lossy
  43. Stream size                              : 1.16 GiB (8%)
  44. Title                                    : Christine.1983.REMASTERED.1080p.BluRay.x264.DTS-SWTYBLZ
  45. Language                                 : English
  46. Default                                  : Yes
  47. Forced                                   : No

  48. Text
  49. ID                                       : 3
  50. Format                                   : UTF-8
  51. Codec ID                                 : S_TEXT/UTF8
  52. Codec ID/Info                            : UTF-8 Plain Text
  53. Duration                                 : 1 h 41 min
  54. Bit rate                                 : 36 b/s
  55. Count of elements                        : 828
  56. Stream size                              : 27.2 KiB (0%)
  57. Language                                 : English
  58. Default                                  : Yes
  59. Forced                                   : No

  60. Menu
  61. 00:00:00.000                             : :Chapter 1
  62. 00:07:54.807                             : :Chapter 2
  63. 00:15:00.733                             : :Chapter 3
  64. 00:20:12.085                             : :Chapter 4
  65. 00:25:41.456                             : :Chapter 5
  66. 00:34:02.165                             : :Chapter 6
  67. 00:41:55.930                             : :Chapter 7
  68. 00:49:12.199                             : :Chapter 8
  69. 00:55:11.391                             : :Chapter 9
  70. 01:01:33.106                             : :Chapter 10
  71. 01:05:57.787                             : :Chapter 11
  72. 01:12:49.406                             : :Chapter 12
  73. 01:17:59.341                             : :Chapter 13
  74. 01:28:31.264                             : :Chapter 14
  75. 01:36:52.223                             : :Chapter 15
  76. 01:45:19.229                             : :Chapter 16
复制代码

复制代码

克莉丝汀魅力/魅力姬丝汀 Christine.1983.REMASTERED.1080p.BluRay.x264.DTS-SWTYBLZ 14.11GB-2.png 克莉丝汀魅力/魅力姬丝汀 Christine.1983.REMASTERED.1080p.BluRay.x264.DTS-SWTYBLZ 14.11GB-3.png 克莉丝汀魅力/魅力姬丝汀 Christine.1983.REMASTERED.1080p.BluRay.x264.DTS-SWTYBLZ 14.11GB-4.png






回复

使用道具 举报

懒得打字嘛,点击右侧快捷回复 【右侧内容,后台自定义】
您需要登录后才可以回帖 登录 | 立即加入

本版积分规则

Archiver|小黑屋| 蓝光电影网 |网站地图

Copyright © 2021 Comsenz Inc. Powered by 蓝光电影网

蓝光电影网

本站内容由用户自主分享和转载自互联网,转载目的在于传递更多信息,并不代表本网赞同其观点和对其真实性负责。

如有侵权、违反国家法律政策行为,请联系我们,我们会第一时间及时清除和处理!

举报反馈邮箱:[email protected]

快速回复 返回顶部 返回列表