找回密码

蓝光电影网

查看: 1195|回复: 1

[恐怖] 克莉丝汀魅力/魅力姬丝汀 Christine.1983.REMASTERED.1080p.BluRay.x264.DTS-HD.MA.7.1-SWTYBLZ 16.37GB

[复制链接]
蓝光币
682
发表于 2018-9-12 11:49:44 | 显示全部楼层 |阅读模式

克莉丝汀魅力/魅力姬丝汀 Christine.1983.REMASTERED.1080p.BluRay.x264.DTS-HD.MA.7.1-SWTYBLZ 16.37GB-1.jpg
◎译  名 克莉丝汀魅力/魅力姬丝汀
◎片  名 Christine
◎年  代 1983
◎产  地 美国
◎类  别 可骇
◎语  言 英语
◎上映日期 1983-12-09
◎豆瓣评分 7.1/10 from 613 users
◎豆瓣链接 https://movie.douban.com/subject/1297421/
◎片  长 110 分钟
◎导  演 约翰·卡朋特 John Carpenter
◎主  演 基斯·戈登 Keith Gordon
      约翰·斯托克韦尔 John Stockwell
      亚历姗卓拉·保罗 Alexandra Paul
      罗伯特·普罗斯基 Robert Prosky
      哈利·戴恩·斯坦通 Harry Dean Stanton
      Christine Belford
      罗伯茨·布洛瑟姆 Roberts Blossom
      William Ostrander
      David Spielberg
      Malcolm Danare
      Steven Tash
      Stuart Charno
      凯利·普雷斯顿 Kelly Preston
      Marc Poppel
      Robert Darnell

◎简  介

  阿尼?科宁汉姆(Keith Gordon 饰)是某所高中内极不起眼的门生,他沉默寡言、木讷外向。怙恃对他没有过量关注,身旁只要女友丽(Alexandra Paul 饰)和洽哥们丹尼斯(John Stockwell 饰),再无其他朋友。
  某天,阿尼看上一辆1958年产的二手普利茅斯?复仇女神(Plymouth Fury),他立即爱上了这辆车,绝不犹豫将其买了下来。可是阿尼的举止渐突变得希奇起来,他不在关心方圆天下,而是将一切留意力都放在这辆名为“克莉丝汀”的车上。当领会到克莉丝汀的布景以后,丽和丹尼斯决议摧毁汽车,拯救阿尼。但是克莉丝汀似乎对挡在她眼前的人绝不包涵……

  1. Video
  2. ID                                       : 1
  3. Format                                   : AVC
  4. Format/Info                              : Advanced Video Codec
  5. Format profile                           : [url=/cdn-cgi/l/email-protection][email protected][/url]
  6. Format settings                          : CABAC / 5 Ref Frames
  7. Format settings, CABAC                   : Yes
  8. Format settings, ReFrames                : 5 frames
  9. Codec ID                                 : V_MPEG4/ISO/AVC
  10. Duration                                 : 1 h 50 min
  11. Bit rate                                 : 16.9 Mb/s
  12. Width                                    : 1 920 pixels
  13. Height                                   : 802 pixels
  14. Display aspect ratio                     : 2.40:1
  15. Frame rate mode                          : Constant
  16. Frame rate                               : 23.976 (24000/1001) FPS
  17. Color space                              : YUV
  18. Chroma subsampling                       : 4:2:0
  19. Bit depth                                : 8 bits
  20. Scan type                                : Progressive
  21. Bits/(Pixel*Frame)                       : 0.456
  22. Stream size                              : 12.9 GiB (79%)
  23. Title                                    : Christine.1983.REMASTERED.1080p.BluRay.x264.DTS-HD.MA.7.1-SWTYBLZ
  24. Writing library                          : x264 core 155 r2901 7d0ff22
  25. Encoding settings                        : cabac=1 / ref=5 / deblock=1:-1:-1 / analyse=0x3:0x133 / me=umh / subme=10 / psy=1 / psy_rd=1.00:0.15 / mixed_ref=1 / me_range=48 / chroma_me=1 / trellis=2 / 8x8dct=1 / cqm=0 / deadzone=21,11 / fast_pskip=1 / chroma_qp_offset=-3 / threads=25 / lookahead_threads=4 / sliced_threads=0 / nr=0 / decimate=0 / interlaced=0 / bluray_compat=0 / constrained_intra=0 / bframes=8 / b_pyramid=2 / b_adapt=2 / b_bias=0 / direct=3 / weightb=1 / open_gop=0 / weightp=2 / keyint=250 / keyint_min=23 / scenecut=40 / intra_refresh=0 / rc_lookahead=60 / rc=crf / mbtree=1 / crf=17.0 / qcomp=0.60 / qpmin=0 / qpmax=69 / qpstep=4 / ip_ratio=1.40 / aq=1:1.00
  26. Language                                 : English
  27. Default                                  : Yes
  28. Forced                                   : No

  29. Audio
  30. ID                                       : 2
  31. Format                                   : DTS
  32. Format/Info                              : Digital Theater Systems
  33. Format profile                           : MA / Core
  34. Codec ID                                 : A_DTS
  35. Duration                                 : 1 h 50 min
  36. Bit rate mode                            : Variable / Constant
  37. Bit rate                                 : 4 298 kb/s / 1 509 kb/s
  38. Channel(s)                               : 8 channels / 6 channels
  39. Channel positions                        : Front: L C R, Side: L R, Back: L R, LFE / Front: L C R, Side: L R, LFE
  40. Sampling rate                            : 48.0 kHz
  41. Frame rate                               : 93.750 FPS (512 SPF)
  42. Bit depth                                : 24 bits
  43. Compression mode                         : Lossless / Lossy
  44. Stream size                              : 3.30 GiB (20%)
  45. Title                                    : Christine.1983.REMASTERED.1080p.BluRay.x264.DTS-HD.MA.7.1-SWTYBLZ
  46. Language                                 : English
  47. Default                                  : No
  48. Forced                                   : No

  49. Text #1
  50. ID                                       : 3
  51. Format                                   : UTF-8
  52. Codec ID                                 : S_TEXT/UTF8
  53. Codec ID/Info                            : UTF-8 Plain Text
  54. Duration                                 : 1 h 41 min
  55. Bit rate                                 : 36 b/s
  56. Count of elements                        : 828
  57. Stream size                              : 27.2 KiB (0%)
  58. Title                                    : English-SRT
  59. Language                                 : English
  60. Default                                  : Yes
  61. Forced                                   : No

  62. Text #2
  63. ID                                       : 4
  64. Format                                   : PGS
  65. Muxing mode                              : zlib
  66. Codec ID                                 : S_HDMV/PGS
  67. Codec ID/Info                            : Picture based subtitle format used on BDs/HD-DVDs
  68. Duration                                 : 1 h 41 min
  69. Bit rate                                 : 21.2 kb/s
  70. Count of elements                        : 1655
  71. Stream size                              : 15.3 MiB (0%)
  72. Title                                    : English-PGS
  73. Language                                 : English
  74. Default                                  : No
  75. Forced                                   : No

  76. Text #3
  77. ID                                       : 5
  78. Format                                   : PGS
  79. Muxing mode                              : zlib
  80. Codec ID                                 : S_HDMV/PGS
  81. Codec ID/Info                            : Picture based subtitle format used on BDs/HD-DVDs
  82. Duration                                 : 1 h 49 min
  83. Bit rate                                 : 26.7 kb/s
  84. Count of elements                        : 2299
  85. Stream size                              : 20.8 MiB (0%)
  86. Title                                    : English-SDH-PGS
  87. Language                                 : English
  88. Default                                  : No
  89. Forced                                   : No

  90. Text #4
  91. ID                                       : 6
  92. Format                                   : PGS
  93. Muxing mode                              : zlib
  94. Codec ID                                 : S_HDMV/PGS
  95. Codec ID/Info                            : Picture based subtitle format used on BDs/HD-DVDs
  96. Duration                                 : 1 h 41 min
  97. Bit rate                                 : 21.2 kb/s
  98. Count of elements                        : 1661
  99. Stream size                              : 15.3 MiB (0%)
  100. Title                                    : English-PGS
  101. Language                                 : English
  102. Default                                  : No
  103. Forced                                   : No

  104. Text #5
  105. ID                                       : 7
  106. Format                                   : PGS
  107. Muxing mode                              : zlib
  108. Codec ID                                 : S_HDMV/PGS
  109. Codec ID/Info                            : Picture based subtitle format used on BDs/HD-DVDs
  110. Duration                                 : 1 h 49 min
  111. Bit rate                                 : 26.7 kb/s
  112. Count of elements                        : 2299
  113. Stream size                              : 20.8 MiB (0%)
  114. Title                                    : English-SDH-PGS
  115. Language                                 : English
  116. Default                                  : No
  117. Forced                                   : No

  118. Text #6
  119. ID                                       : 8
  120. Format                                   : PGS
  121. Muxing mode                              : zlib
  122. Codec ID                                 : S_HDMV/PGS
  123. Codec ID/Info                            : Picture based subtitle format used on BDs/HD-DVDs
  124. Duration                                 : 1 h 49 min
  125. Bit rate                                 : 16.5 kb/s
  126. Count of elements                        : 1689
  127. Stream size                              : 12.9 MiB (0%)
  128. Title                                    : Chinese-PGS
  129. Language                                 : Chinese
  130. Default                                  : No
  131. Forced                                   : No

  132. Text #7
  133. ID                                       : 9
  134. Format                                   : PGS
  135. Muxing mode                              : zlib
  136. Codec ID                                 : S_HDMV/PGS
  137. Codec ID/Info                            : Picture based subtitle format used on BDs/HD-DVDs
  138. Duration                                 : 1 h 45 min
  139. Bit rate                                 : 17.9 kb/s
  140. Count of elements                        : 1437
  141. Stream size                              : 13.5 MiB (0%)
  142. Title                                    : Dutch-PGS
  143. Language                                 : Dutch
  144. Default                                  : No
  145. Forced                                   : No

  146. Text #8
  147. ID                                       : 10
  148. Format                                   : PGS
  149. Muxing mode                              : zlib
  150. Codec ID                                 : S_HDMV/PGS
  151. Codec ID/Info                            : Picture based subtitle format used on BDs/HD-DVDs
  152. Duration                                 : 1 h 45 min
  153. Bit rate                                 : 19.5 kb/s
  154. Count of elements                        : 1557
  155. Stream size                              : 14.6 MiB (0%)
  156. Title                                    : Finnish-PGS
  157. Language                                 : Finnish
  158. Default                                  : No
  159. Forced                                   : No

  160. Text #9
  161. ID                                       : 11
  162. Format                                   : PGS
  163. Muxing mode                              : zlib
  164. Codec ID                                 : S_HDMV/PGS
  165. Codec ID/Info                            : Picture based subtitle format used on BDs/HD-DVDs
  166. Duration                                 : 1 h 45 min
  167. Bit rate                                 : 21.3 kb/s
  168. Count of elements                        : 1871
  169. Stream size                              : 16.0 MiB (0%)
  170. Title                                    : French-PGS
  171. Language                                 : French
  172. Default                                  : No
  173. Forced                                   : No

  174. Text #10
  175. ID                                       : 12
  176. Format                                   : PGS
  177. Muxing mode                              : zlib
  178. Codec ID                                 : S_HDMV/PGS
  179. Codec ID/Info                            : Picture based subtitle format used on BDs/HD-DVDs
  180. Duration                                 : 1 h 45 min
  181. Bit rate                                 : 22.6 kb/s
  182. Count of elements                        : 1715
  183. Stream size                              : 16.9 MiB (0%)
  184. Title                                    : German-PGS
  185. Language                                 : German
  186. Default                                  : No
  187. Forced                                   : No

  188. Text #11
  189. ID                                       : 13
  190. Format                                   : PGS
  191. Muxing mode                              : zlib
  192. Codec ID                                 : S_HDMV/PGS
  193. Codec ID/Info                            : Picture based subtitle format used on BDs/HD-DVDs
  194. Duration                                 : 1 h 48 min
  195. Bit rate                                 : 16.1 kb/s
  196. Count of elements                        : 1691
  197. Stream size                              : 12.4 MiB (0%)
  198. Title                                    : Hebrew-PGS
  199. Language                                 : Hebrew
  200. Default                                  : No
  201. Forced                                   : No

  202. Text #12
  203. ID                                       : 14
  204. Format                                   : PGS
  205. Muxing mode                              : zlib
  206. Codec ID                                 : S_HDMV/PGS
  207. Codec ID/Info                            : Picture based subtitle format used on BDs/HD-DVDs
  208. Duration                                 : 1 h 48 min
  209. Bit rate                                 : 17.8 kb/s
  210. Count of elements                        : 2191
  211. Stream size                              : 13.8 MiB (0%)
  212. Title                                    : Hindi-PGS
  213. Language                                 : Hindi
  214. Default                                  : No
  215. Forced                                   : No

  216. Text #13
  217. ID                                       : 15
  218. Format                                   : PGS
  219. Muxing mode                              : zlib
  220. Codec ID                                 : S_HDMV/PGS
  221. Codec ID/Info                            : Picture based subtitle format used on BDs/HD-DVDs
  222. Duration                                 : 1 h 45 min
  223. Bit rate                                 : 21.0 kb/s
  224. Count of elements                        : 1703
  225. Stream size                              : 15.7 MiB (0%)
  226. Title                                    : Italian-PGS
  227. Language                                 : Italian
  228. Default                                  : No
  229. Forced                                   : No

  230. Text #14
  231. ID                                       : 16
  232. Format                                   : PGS
  233. Muxing mode                              : zlib
  234. Codec ID                                 : S_HDMV/PGS
  235. Codec ID/Info                            : Picture based subtitle format used on BDs/HD-DVDs
  236. Duration                                 : 1 h 44 min
  237. Bit rate                                 : 13.8 kb/s
  238. Count of elements                        : 1483
  239. Stream size                              : 10.3 MiB (0%)
  240. Title                                    : Japanese-PGS
  241. Language                                 : Japanese
  242. Default                                  : No
  243. Forced                                   : No

  244. Text #15
  245. ID                                       : 17
  246. Format                                   : PGS
  247. Muxing mode                              : zlib
  248. Codec ID                                 : S_HDMV/PGS
  249. Codec ID/Info                            : Picture based subtitle format used on BDs/HD-DVDs
  250. Duration                                 : 1 h 45 min
  251. Bit rate                                 : 15.8 kb/s
  252. Count of elements                        : 1661
  253. Stream size                              : 12.0 MiB (0%)
  254. Title                                    : Korean-PGS
  255. Language                                 : Korean
  256. Default                                  : No
  257. Forced                                   : No

  258. Text #16
  259. ID                                       : 18
  260. Format                                   : PGS
  261. Muxing mode                              : zlib
  262. Codec ID                                 : S_HDMV/PGS
  263. Codec ID/Info                            : Picture based subtitle format used on BDs/HD-DVDs
  264. Duration                                 : 1 h 45 min
  265. Bit rate                                 : 19.6 kb/s
  266. Count of elements                        : 1697
  267. Stream size                              : 14.8 MiB (0%)
  268. Title                                    : Spanish-PGS
  269. Language                                 : Spanish
  270. Default                                  : No
  271. Forced                                   : No

  272. Text #17
  273. ID                                       : 19
  274. Format                                   : PGS
  275. Muxing mode                              : zlib
  276. Codec ID                                 : S_HDMV/PGS
  277. Codec ID/Info                            : Picture based subtitle format used on BDs/HD-DVDs
  278. Duration                                 : 1 h 45 min
  279. Bit rate                                 : 21.4 kb/s
  280. Count of elements                        : 1809
  281. Stream size                              : 16.1 MiB (0%)
  282. Title                                    : Swedish-PGS
  283. Language                                 : Swedish
  284. Default                                  : No
  285. Forced                                   : No

  286. Text #18
  287. ID                                       : 20
  288. Format                                   : PGS
  289. Muxing mode                              : zlib
  290. Codec ID                                 : S_HDMV/PGS
  291. Codec ID/Info                            : Picture based subtitle format used on BDs/HD-DVDs
  292. Duration                                 : 1 h 48 min
  293. Bit rate                                 : 18.3 kb/s
  294. Count of elements                        : 1687
  295. Stream size                              : 14.1 MiB (0%)
  296. Title                                    : Thai-PGS
  297. Language                                 : Thai
  298. Default                                  : No
  299. Forced                                   : No

  300. Menu
  301. 00:00:00.000                             : :Chapter 1
  302. 00:07:54.807                             : :Chapter 2
  303. 00:15:00.733                             : :Chapter 3
  304. 00:20:12.085                             : :Chapter 4
  305. 00:25:41.456                             : :Chapter 5
  306. 00:34:02.165                             : :Chapter 6
  307. 00:41:55.930                             : :Chapter 7
  308. 00:49:12.199                             : :Chapter 8
  309. 00:55:11.391                             : :Chapter 9
  310. 01:01:33.106                             : :Chapter 10
  311. 01:05:57.787                             : :Chapter 11
  312. 01:12:49.406                             : :Chapter 12
  313. 01:17:59.341                             : :Chapter 13
  314. 01:28:31.264                             : :Chapter 14
  315. 01:36:52.223                             : :Chapter 15
  316. 01:45:19.229                             : :Chapter 16
复制代码

复制代码

克莉丝汀魅力/魅力姬丝汀 Christine.1983.REMASTERED.1080p.BluRay.x264.DTS-HD.MA.7.1-SWTYBLZ 16.37GB-2.png 克莉丝汀魅力/魅力姬丝汀 Christine.1983.REMASTERED.1080p.BluRay.x264.DTS-HD.MA.7.1-SWTYBLZ 16.37GB-3.png 克莉丝汀魅力/魅力姬丝汀 Christine.1983.REMASTERED.1080p.BluRay.x264.DTS-HD.MA.7.1-SWTYBLZ 16.37GB-4.png







回复

使用道具 举报

蓝光币
281
发表于 2018-10-10 21:03:23 | 显示全部楼层
听说是不会错的电影,感谢发布哈
回复 支持 反对

使用道具 举报

懒得打字嘛,点击右侧快捷回复 【右侧内容,后台自定义】
您需要登录后才可以回帖 登录 | 立即加入

本版积分规则

Archiver|小黑屋| 蓝光电影网 |网站地图

Copyright © 2021 Comsenz Inc. Powered by 蓝光电影网

蓝光电影网

本站内容由用户自主分享和转载自互联网,转载目的在于传递更多信息,并不代表本网赞同其观点和对其真实性负责。

如有侵权、违反国家法律政策行为,请联系我们,我们会第一时间及时清除和处理!

举报反馈邮箱:[email protected]

快速回复 返回顶部 返回列表