找回密码

蓝光电影网

查看: 1018|回复: 5

[剧情] 恶灵第七兆 The.Seventh.Sign.1988.1080p.BluRay.x264-CiNEFiLE 8.74GB

[复制链接]
蓝光币
623
发表于 2018-9-12 11:51:12 | 显示全部楼层 |阅读模式


◎译  名 恶灵第七兆
◎片  名 The Seventh Sign
◎年  代 1988
◎产  地 美国
◎类  别 剧情/奇异/惊悚
◎语  言 英语
◎上映日期 1988-04-01
◎豆瓣评分 6.5/10 from 133 users
◎豆瓣链接 https://movie.douban.com/subject/1292924/
◎片  长 97 分钟
◎导  演 Carl Schultz
◎主  演 黛咪.摩尔 Demi Moore ... Abby Quinn

◎简  介

  Abby是一位住在加州的怀孕妇人,她将车库租给了一位叫做大卫的男人,可是她没想到,这名奥秘的男人竟试图操纵她未出世孩子的灵魂与生命,将启迪录中的七个恶兆逐一开启,让人类堕入圣经预言中的灾难……
  眼看他已成功的翻开了前六个预兆,地球上的河流中鲜血众多、沙漠被冰雪覆盖、月亮发出猩红色的光芒,第七个预言若实现,人类将走上末路。此时,Abby发现自己与肚子中的孩子与天下末日息息相关,她将做何挑选?

  1. Video
  2. ID                                       : 1
  3. Format                                   : AVC
  4. Format/Info                              : Advanced Video Codec
  5. Format profile                           : [url=/cdn-cgi/l/email-protection][email protected][/url]
  6. Format settings                          : CABAC / 5 Ref Frames
  7. Format settings, CABAC                   : Yes
  8. Format settings, RefFrames               : 5 frames
  9. Codec ID                                 : V_MPEG4/ISO/AVC
  10. Duration                                 : 1 h 36 min
  11. Bit rate                                 : 11.4 Mb/s
  12. Width                                    : 1 920 pixels
  13. Height                                   : 816 pixels
  14. Display aspect ratio                     : 2.35:1
  15. Frame rate mode                          : Constant
  16. Frame rate                               : 23.976 (24000/1001) FPS
  17. Color space                              : YUV
  18. Chroma subsampling                       : 4:2:0
  19. Bit depth                                : 8 bits
  20. Scan type                                : Progressive
  21. Bits/(Pixel*Frame)                       : 0.303
  22. Stream size                              : 7.72 GiB (88%)
  23. Writing library                          : x264 core 157 r2932 303c484
  24. Encoding settings                        : cabac=1 / ref=5 / deblock=1:-3:-3 / analyse=0x3:0x113 / me=umh / subme=8 / psy=1 / psy_rd=1.00:0.00 / mixed_ref=1 / me_range=16 / chroma_me=1 / trellis=2 / 8x8dct=1 / cqm=0 / deadzone=21,11 / fast_pskip=0 / chroma_qp_offset=-2 / threads=24 / lookahead_threads=4 / sliced_threads=0 / nr=0 / decimate=1 / interlaced=0 / bluray_compat=0 / constrained_intra=0 / bframes=3 / b_pyramid=2 / b_adapt=1 / b_bias=0 / direct=1 / weightb=1 / open_gop=0 / weightp=2 / keyint=250 / keyint_min=23 / scenecut=40 / intra_refresh=0 / rc_lookahead=40 / rc=2pass / mbtree=1 / bitrate=11400 / ratetol=1.0 / qcomp=0.60 / qpmin=0 / qpmax=69 / qpstep=4 / cplxblur=20.0 / qblur=0.5 / ip_ratio=1.40 / aq=1:1.00
  25. Language                                 : English
  26. Default                                  : Yes
  27. Forced                                   : No

  28. Audio
  29. ID                                       : 2
  30. Format                                   : DTS
  31. Format/Info                              : Digital Theater Systems
  32. Mode                                     : 16
  33. Format settings, Endianness              : Big
  34. Codec ID                                 : A_DTS
  35. Duration                                 : 1 h 36 min
  36. Bit rate mode                            : Constant
  37. Bit rate                                 : 1 509 kb/s
  38. Channel(s)                               : 2 channels
  39. Channel positions                        : Front: L R
  40. Sampling rate                            : 48.0 kHz
  41. Frame rate                               : 93.750 FPS (512 SPF)
  42. Bit depth                                : 24 bits
  43. Compression mode                         : Lossy
  44. Stream size                              : 1.02 GiB (12%)
  45. Language                                 : English
  46. Default                                  : Yes
  47. Forced                                   : No

  48. Text #1
  49. ID                                       : 3
  50. Format                                   : UTF-8
  51. Codec ID                                 : S_TEXT/UTF8
  52. Codec ID/Info                            : UTF-8 Plain Text
  53. Duration                                 : 1 h 29 min
  54. Bit rate                                 : 49 b/s
  55. Count of elements                        : 1076
  56. Stream size                              : 32.7 KiB (0%)
  57. Language                                 : English
  58. Default                                  : No
  59. Forced                                   : No

  60. Text #2
  61. ID                                       : 4
  62. Format                                   : UTF-8
  63. Codec ID                                 : S_TEXT/UTF8
  64. Codec ID/Info                            : UTF-8 Plain Text
  65. Duration                                 : 1 h 32 min
  66. Bit rate                                 : 54 b/s
  67. Count of elements                        : 1239
  68. Stream size                              : 36.9 KiB (0%)
  69. Title                                    : SDH
  70. Language                                 : English
  71. Default                                  : No
  72. Forced                                   : No

  73. Menu
  74. 00:00:00.000                             : en:00:00:00.000
  75. 00:08:11.825                             : en:00:08:11.825
  76. 00:16:09.760                             : en:00:16:09.760
  77. 00:23:40.836                             : en:00:23:40.836
  78. 00:31:32.140                             : en:00:31:32.140
  79. 00:39:46.634                             : en:00:39:46.634
  80. 00:48:23.275                             : en:00:48:23.275
  81. 00:56:52.409                             : en:00:56:52.409
  82. 01:05:25.880                             : en:01:05:25.880
  83. 01:14:28.381                             : en:01:14:28.381
  84. 01:24:07.834                             : en:01:24:07.834
  85. 01:33:51.668                             : en:01:33:51.668
复制代码

复制代码









回复

使用道具 举报

懒得打字嘛,点击右侧快捷回复 【右侧内容,后台自定义】
您需要登录后才可以回帖 登录 | 立即加入

本版积分规则

Archiver|小黑屋| 蓝光电影网 |网站地图

Copyright © 2021 Comsenz Inc. Powered by 蓝光电影网

蓝光电影网

本站内容由用户自主分享和转载自互联网,转载目的在于传递更多信息,并不代表本网赞同其观点和对其真实性负责。

如有侵权、违反国家法律政策行为,请联系我们,我们会第一时间及时清除和处理!

举报反馈邮箱:[email protected]

快速回复 返回顶部 返回列表