找回密码

蓝光电影网

查看: 1731|回复: 1

[动画] 超人总动员/超人特攻队 The.Incredibles.2004.RERIP.1080p.BluRay.x264.TrueHD.7.1.Atmos-SWTYBLZ 11.51GB

[复制链接]
蓝光币
623
发表于 2018-9-12 16:41:36 | 显示全部楼层 |阅读模式

超人总带动/超人特攻队 The.Incredibles.2004.RERIP.1080p.BluRay.x264.TrueHD.7.1.Atmos-SWTYBLZ 11.51GB-1.jpg
◎译  名 超人总带动/超人特攻队/超人家属/超人奸细队
◎片  名 The Incredibles
◎年  代 2004
◎产  地 美国
◎类  别 笑剧/行动/动画/冒险
◎语  言 英语/西班牙语/法语
◎上映日期 2004-11-05(美国)/2005-01-28(中国大陆)
◎豆瓣评分 8.0/10 from 157,674 users
◎豆瓣链接 https://movie.douban.com/subject/1291577/
◎片  长 115分钟
◎导  演 布拉德·伯德 Brad Bird
◎主  演 格雷格·T·尼尔森 Craig T. Nelson
      霍利·亨特 Holly Hunter
      塞缪尔·杰克逊 Samuel L. Jackson
      杰森·李 Jason Lee
      泰迪·牛顿 Teddy Newton
      华莱士·肖恩 1040504

◎简  介

  鲍勃是一个超人奸细,他劝善扬善,深受街坊邻里的爱戴。“不成思议”师长就是他的名誉绰号。他和另一个超人奸细“弹力女超人”相爱,两人成婚后过上安静的生活。
  15年曩昔了,鲍勃已经像普通人一样生活,当上了保险公司的理赔员。但是他心中还是有着技痒之时。当他晓得有发现家要展开进犯超人奸细队、扑灭人类的计划,鲍勃终究抑制不住了。他要重出江湖,拯救人类保护地球。但中年的超人已经脑满肠肥,他和仇敌的斗争布满了悬念。鲍勃的妻子也跟丈夫一路投入到这场艰难的战争中。

◎获奖情况

  第77届奥斯卡金像奖  (2005)
  最好原创剧本(提名) 布拉德·伯德
  最好动画长片 布拉德·伯德
  最好混音(提名) 兰迪·汤姆 / Doc Kane / 加里·利佐
  最好音效剪辑 兰迪·汤姆 / 迈克尔·席维斯

  第62届金球奖  (2005)
  电影类 最好音乐/笑剧片(提名)

  第32届动画安妮奖  (2005)
  最好动画长片
  最好导演 布拉德·伯德
  最好编剧 布拉德·伯德
  最好配音 布拉德·伯德
  最好配音(提名) 塞缪尔·杰克逊
  最好配乐 迈克·吉亚奇诺
  最好配乐(提名) 迈克·吉亚奇诺
  最好分镜 Kevin O'Brien
  最好分镜(提名) Ted Mathot
  最好艺术指导 卢·罗曼诺
  最好动画脚色 安格斯·麦克莱恩
  最好动画脚色(提名) 约翰·凯世 / 彼得·宋 / Kureha Yokoo
  最好脚色设想 托尼·弗希勒
  最好脚色设想(提名) 泰迪·牛顿
  最好动画结果 Martin Nguyen

  第14届MTV电影奖  (2005)
  MTV电影奖 年度电影(提名)
  MTV电影奖 最好银幕组合(提名) 格雷格·T·尼尔森 / Spencer Fox / 霍利·亨特 / 莎拉·沃威尔

  第5届美国电影学会奖  (2004)
  年度佳片

  1. Video
  2. ID                                       : 1
  3. Format                                   : AVC
  4. Format/Info                              : Advanced Video Codec
  5. Format profile                           : [url=/cdn-cgi/l/email-protection][email protected][/url]
  6. Format settings                          : CABAC / 5 Ref Frames
  7. Format settings, CABAC                   : Yes
  8. Format settings, ReFrames                : 5 frames
  9. Codec ID                                 : V_MPEG4/ISO/AVC
  10. Duration                                 : 1 h 55 min
  11. Bit rate                                 : 6 200 kb/s
  12. Width                                    : 1 920 pixels
  13. Height                                   : 802 pixels
  14. Display aspect ratio                     : 2.40:1
  15. Frame rate mode                          : Constant
  16. Frame rate                               : 23.976 (24000/1001) FPS
  17. Color space                              : YUV
  18. Chroma subsampling                       : 4:2:0
  19. Bit depth                                : 8 bits
  20. Scan type                                : Progressive
  21. Bits/(Pixel*Frame)                       : 0.168
  22. Stream size                              : 4.99 GiB (43%)
  23. Title                                    : The.Incredibles.2004.RERIP.1080p.BluRay.x264.TrueHD.7.1.Atmos-SWTYBLZ
  24. Writing library                          : x264 core 155 r2901 7d0ff22
  25. Encoding settings                        : cabac=1 / ref=5 / deblock=1:1:1 / analyse=0x3:0x133 / me=umh / subme=10 / psy=1 / psy_rd=0.40:0.00 / mixed_ref=1 / me_range=48 / chroma_me=1 / trellis=2 / 8x8dct=1 / cqm=0 / deadzone=21,11 / fast_pskip=1 / chroma_qp_offset=-2 / threads=25 / lookahead_threads=6 / sliced_threads=0 / nr=0 / decimate=0 / interlaced=0 / bluray_compat=0 / constrained_intra=0 / bframes=10 / b_pyramid=2 / b_adapt=2 / b_bias=0 / direct=3 / weightb=1 / open_gop=0 / weightp=2 / keyint=250 / keyint_min=23 / scenecut=40 / intra_refresh=0 / rc_lookahead=60 / rc=crf / mbtree=1 / crf=13.0 / qcomp=0.60 / qpmin=0 / qpmax=69 / qpstep=4 / ip_ratio=1.40 / aq=1:0.60
  26. Language                                 : English
  27. Default                                  : Yes
  28. Forced                                   : No

  29. Audio #1
  30. ID                                       : 2
  31. Format                                   : TrueHD
  32. Format profile                           : TrueHD+Atmos / TrueHD
  33. Codec ID                                 : A_TRUEHD
  34. Duration                                 : 1 h 55 min
  35. Bit rate mode                            : Variable
  36. Bit rate                                 : 7 354 kb/s
  37. Maximum bit rate                         : 7 071 kb/s
  38. Channel(s)                               : Object Based / 8 channels
  39. Channel positions                        : Object Based / Front: L C R, Side: L R, Back: L R, LFE
  40. Sampling rate                            :  / 48.0 kHz
  41. Frame rate                               : 1 200.000 FPS (40 SPF)
  42. Compression mode                         : Lossless
  43. Stream size                              : 5.92 GiB (51%)
  44. Title                                    : The.Incredibles.2004.RERIP.1080p.BluRay.x264.TrueHD.7.1.Atmos-SWTYBLZ
  45. Language                                 : English
  46. Default                                  : Yes
  47. Forced                                   : No

  48. Audio #2
  49. ID                                       : 3
  50. Format                                   : AC-3
  51. Format/Info                              : Audio Coding 3
  52. Codec ID                                 : A_AC3
  53. Duration                                 : 1 h 55 min
  54. Bit rate mode                            : Constant
  55. Bit rate                                 : 640 kb/s
  56. Channel(s)                               : 6 channels
  57. Channel positions                        : Front: L C R, Side: L R, LFE
  58. Sampling rate                            : 48.0 kHz
  59. Frame rate                               : 31.250 FPS (1536 SPF)
  60. Bit depth                                : 16 bits
  61. Compression mode                         : Lossy
  62. Stream size                              : 528 MiB (4%)
  63. Title                                    : The.Incredibles.2004.RERIP.1080p.BluRay.x264.TrueHD.7.1.Atmos-SWTYBLZ
  64. Language                                 : English
  65. Service kind                             : Complete Main
  66. Default                                  : No
  67. Forced                                   : No

  68. Text #1
  69. ID                                       : 4
  70. Format                                   : UTF-8
  71. Codec ID                                 : S_TEXT/UTF8
  72. Codec ID/Info                            : UTF-8 Plain Text
  73. Duration                                 : 1 h 46 min
  74. Bit rate                                 : 59 b/s
  75. Count of elements                        : 1210
  76. Stream size                              : 46.7 KiB (0%)
  77. Title                                    : English-SRT
  78. Language                                 : English
  79. Default                                  : Yes
  80. Forced                                   : No

  81. Text #2
  82. ID                                       : 5
  83. Format                                   : UTF-8
  84. Codec ID                                 : S_TEXT/UTF8
  85. Codec ID/Info                            : UTF-8 Plain Text
  86. Duration                                 : 1 h 47 min
  87. Bit rate                                 : 64 b/s
  88. Count of elements                        : 1329
  89. Stream size                              : 50.3 KiB (0%)
  90. Title                                    : English-SDH-SRT
  91. Language                                 : English
  92. Default                                  : No
  93. Forced                                   : No

  94. Text #3
  95. ID                                       : 6
  96. Format                                   : PGS
  97. Muxing mode                              : zlib
  98. Codec ID                                 : S_HDMV/PGS
  99. Codec ID/Info                            : Picture based subtitle format used on BDs/HD-DVDs
  100. Duration                                 : 1 h 49 min
  101. Bit rate                                 : 39.0 kb/s
  102. Count of elements                        : 2668
  103. Stream size                              : 30.7 MiB (0%)
  104. Title                                    : English-PGS
  105. Language                                 : English
  106. Default                                  : No
  107. Forced                                   : No

  108. Text #4
  109. ID                                       : 7
  110. Format                                   : PGS
  111. Muxing mode                              : zlib
  112. Codec ID                                 : S_HDMV/PGS
  113. Codec ID/Info                            : Picture based subtitle format used on BDs/HD-DVDs
  114. Duration                                 : 1 h 49 min
  115. Bit rate                                 : 37.1 kb/s
  116. Count of elements                        : 2414
  117. Stream size                              : 29.1 MiB (0%)
  118. Title                                    : French-PGS
  119. Language                                 : French
  120. Default                                  : No
  121. Forced                                   : No

  122. Text #5
  123. ID                                       : 8
  124. Format                                   : PGS
  125. Muxing mode                              : zlib
  126. Codec ID                                 : S_HDMV/PGS
  127. Codec ID/Info                            : Picture based subtitle format used on BDs/HD-DVDs
  128. Duration                                 : 1 h 49 min
  129. Bit rate                                 : 36.2 kb/s
  130. Count of elements                        : 2394
  131. Stream size                              : 28.4 MiB (0%)
  132. Title                                    : Spanish-PGS
  133. Language                                 : Spanish
  134. Default                                  : No
  135. Forced                                   : No

  136. Menu
  137. 00:00:00.000                             : en:00:00:00.000
  138. 00:09:15.388                             : en:00:09:15.388
  139. 00:11:33.568                             : en:00:11:33.568
  140. 00:13:32.186                             : en:00:13:32.186
  141. 00:17:09.362                             : en:00:17:09.362
  142. 00:20:45.744                             : en:00:20:45.744
  143. 00:26:54.363                             : en:00:26:54.363
  144. 00:30:43.049                             : en:00:30:43.049
  145. 00:34:55.427                             : en:00:34:55.427
  146. 00:41:28.069                             : en:00:41:28.069
  147. 00:46:02.510                             : en:00:46:02.510
  148. 00:48:55.349                             : en:00:48:55.349
  149. 00:50:02.958                             : en:00:50:02.958
  150. 00:54:02.614                             : en:00:54:02.614
  151. 00:57:10.385                             : en:00:57:10.385
  152. 01:00:36.633                             : en:01:00:36.633
  153. 01:05:05.693                             : en:01:05:05.693
  154. 01:10:54.542                             : en:01:10:54.542
  155. 01:12:58.749                             : en:01:12:58.749
  156. 01:16:28.417                             : en:01:16:28.417
  157. 01:19:20.047                             : en:01:19:20.047
  158. 01:21:14.745                             : en:01:21:14.745
  159. 01:24:00.494                             : en:01:24:00.494
  160. 01:27:06.471                             : en:01:27:06.471
  161. 01:30:30.675                             : en:01:30:30.675
  162. 01:32:48.229                             : en:01:32:48.229
  163. 01:33:33.858                             : en:01:33:33.858
  164. 01:34:31.374                             : en:01:34:31.374
  165. 01:37:03.985                             : en:01:37:03.985
  166. 01:41:58.904                             : en:01:41:58.904
  167. 01:45:40.834                             : en:01:45:40.834
  168. 01:47:34.156                             : en:01:47:34.156
复制代码

复制代码

超人总带动/超人特攻队 The.Incredibles.2004.RERIP.1080p.BluRay.x264.TrueHD.7.1.Atmos-SWTYBLZ 11.51GB-2.png 超人总带动/超人特攻队 The.Incredibles.2004.RERIP.1080p.BluRay.x264.TrueHD.7.1.Atmos-SWTYBLZ 11.51GB-3.png 超人总带动/超人特攻队 The.Incredibles.2004.RERIP.1080p.BluRay.x264.TrueHD.7.1.Atmos-SWTYBLZ 11.51GB-4.png






回复

使用道具 举报

蓝光币
15
发表于 2018-11-30 20:27:28 | 显示全部楼层

感谢楼主的无私分享!要想蓝光电影网好 就靠你我他
回复 支持 反对

使用道具 举报

懒得打字嘛,点击右侧快捷回复 【右侧内容,后台自定义】
您需要登录后才可以回帖 登录 | 立即加入

本版积分规则

Archiver|小黑屋| 蓝光电影网 |网站地图

Copyright © 2021 Comsenz Inc. Powered by 蓝光电影网

蓝光电影网

本站内容由用户自主分享和转载自互联网,转载目的在于传递更多信息,并不代表本网赞同其观点和对其真实性负责。

如有侵权、违反国家法律政策行为,请联系我们,我们会第一时间及时清除和处理!

举报反馈邮箱:[email protected]

快速回复 返回顶部 返回列表