找回密码

蓝光电影网

查看: 2559|回复: 8

[10bit.HDR] 罗宾汉/侠盗·骄雄 Robin.Hood.2010.THEATRICAL.2160p.BluRay.x265.10bit.HDR.DTS-X.7.1-WhiteRhino 38.61GB

[复制链接]
蓝光币
623
发表于 2018-9-14 15:11:05 | 显示全部楼层 |阅读模式
罗宾汉/侠盗·骄雄 Robin.Hood.2010.THEATRICAL.2160p.BluRay.x265.10bit.HDR.DTS-X.7.1-WhiteRhino 38.61GB-1.jpg
◎译  名 罗宾汉/侠盗·骄雄(港)
◎片  名 Robin Hood
◎年  代 2010
◎产  地 美国/英国
◎类  别 行动/冒险/剧情
◎语  言 英语
◎上映日期 2010-05-12(英国)/2010-06-11(中国大陆)
◎豆瓣评分 6.7/10 from 21,401 users
◎豆瓣链接 https://movie.douban.com/subject/2062677/
◎片  长 140 分钟/131 分钟(戛纳电影节)/156 分钟(导演剪辑版)
◎导  演 雷德利·斯科特 Ridley Scott
◎主  演 罗素·克劳 Russell Crowe
      凯特·布兰切特 Cate Blanchett
      威廉·赫特 William Hurt
      马克·斯特朗 Mark Strong
      马克斯·冯·西多 Max von Sydow
      奥斯卡·伊撒克 Oscar Isaac
      马修·麦克费登 Matthew Macfadyen
      丹尼·赫斯顿 Danny Huston
      艾琳·阿特金斯 Eileen Atkins
      马克·阿蒂 Mark Addy
      蕾雅·赛杜 Léa Seydoux

◎简  介

  13世纪,大英帝国在狮心王理查一世(丹尼·赫斯顿 Danny Huston 饰)的率领下与来犯的法国军队展开酣战。力大无穷、勇猛善战的罗宾·朗斯特莱德(罗素·克劳 Russell Crowe 饰)是这群英国战士中的一员,作为射手的他曾随理查加入过十字军东征,在对法的战争中也表示英勇。可是狮心王遭受诡计刺杀,罗宾接管与国王一同遇刺的罗伯特?洛克斯利的遗言,摇身酿成罗伯特回到英国。在王宫骗吃骗喝事后,罗宾如约来到罗伯特的故乡诺丁汉,他不但获得罗伯特父亲的准予继续假扮其儿子,还意外得知了自己的身世之谜。与此同时,法国野心勃勃,觊觎着英国的国土,而英国国内又乱相丛生,危机四伏。
  在暗流涌动的大时代下,罗宾似乎了然了自己的保存使命,未几后他拿起长弓,投入深林,开启了耐久不衰的罗宾汉的传闻……

◎获奖情况

  第12届美国青少年挑选奖  (2010)
  最好行动冒险电影(提名)
  最好行动冒险电影男演员(提名) 罗素·克劳
  最好行动冒险电影女演员(提名) 凯特·布兰切特

  1. Video
  2. ID                                       : 1
  3. Format                                   : HEVC
  4. Format/Info                              : High Efficiency Video Coding
  5. Commercial name                          : HDR10
  6. Format profile                           : Main [url=/cdn-cgi/l/email-protection][email protected][/url]@High
  7. Codec ID                                 : V_MPEGH/ISO/HEVC
  8. Duration                                 : 2 h 20 min
  9. Bit rate                                 : 31.9 Mb/s
  10. Width                                    : 3 840 pixels
  11. Height                                   : 1 600 pixels
  12. Display aspect ratio                     : 2.40:1
  13. Frame rate mode                          : Constant
  14. Frame rate                               : 23.976 (24000/1001) FPS
  15. Color space                              : YUV
  16. Chroma subsampling                       : 4:2:0 (Type 2)
  17. Bit depth                                : 10 bits
  18. Bits/(Pixel*Frame)                       : 0.216
  19. Stream size                              : 31.3 GiB (81%)
  20. Writing library                          : x265 2.8+10-703eade86b53:[Windows][MSVC 1914][64 bit] 10bit
  21. Encoding settings                        : cpuid=1111039 / frame-threads=5 / numa-pools=36 / wpp / no-pmode / no-pme / no-psnr / no-ssim / log-level=2 / input-csp=1 / input-res=3840x1600 / interlace=0 / total-frames=201888 / level-idc=51 / high-tier=1 / uhd-bd=0 / ref=4 / no-allow-non-conformance / repeat-headers / annexb / aud / hrd / info / hash=0 / no-temporal-layers / no-open-gop / min-keyint=1 / keyint=24 / gop-lookahead=0 / bframes=4 / b-adapt=2 / b-pyramid / bframe-bias=0 / rc-lookahead=25 / lookahead-slices=4 / scenecut=40 / radl=0 / no-intra-refresh / ctu=64 / min-cu-size=8 / rect / no-amp / max-tu-size=32 / tu-inter-depth=1 / tu-intra-depth=1 / limit-tu=0 / rdoq-level=2 / dynamic-rd=0.00 / no-ssim-rd / signhide / no-tskip / nr-intra=0 / nr-inter=0 / no-constrained-intra / no-strong-intra-smoothing / max-merge=3 / limit-refs=3 / limit-modes / me=3 / subme=3 / merange=57 / temporal-mvp / weightp / no-weightb / no-analyze-src-pics / deblock=-3:-3 / no-sao / no-sao-non-deblock / rd=4 / no-early-skip / rskip / no-fast-intra / no-tskip-fast / no-cu-lossless / no-b-intra / no-splitrd-skip / rdpenalty=0 / psy-rd=2.00 / psy-rdoq=1.00 / no-rd-refine / no-lossless / cbqpoffs=0 / crqpoffs=0 / rc=crf / crf=19.5 / qcomp=0.60 / qpstep=4 / stats-write=0 / stats-read=0 / vbv-maxrate=160000 / vbv-bufsize=160000 / vbv-init=0.9 / crf-max=0.0 / crf-min=0.0 / ipratio=1.40 / pbratio=1.30 / aq-mode=1 / aq-strength=1.00 / cutree / zone-count=0 / no-strict-cbr / qg-size=32 / no-rc-grain / qpmax=69 / qpmin=0 / no-const-vbv / sar=1 / overscan=0 / videoformat=5 / range=0 / colorprim=9 / transfer=16 / colormatrix=9 / chromaloc=1 / chromaloc-top=2 / chromaloc-bottom=2 / display-window=0 / master-display=G(13250,34500)B(7500,3000)R(34000,16000)WP(15635,16450)L(10000000,50) / max-cll=1001,328 / min-luma=0 / max-luma=1023 / log2-max-poc-lsb=8 / vui-timing-info / vui-hrd-info / slices=1 / no-opt-qp-pps / no-opt-ref-list-length-pps / no-multi-pass-opt-rps / scenecut-bias=0.05 / no-opt-cu-delta-qp / no-aq-motion / hdr / hdr-opt / no-dhdr10-opt / no-idr-recovery-sei / analysis-reuse-level=5 / scale-factor=0 / refine-intra=0 / refine-inter=0 / refine-mv=0 / no-limit-sao / ctu-info=0 / no-lowpass-dct / refine-mv-type=0 / copy-pic=1 / max-ausize-factor=1.0 / no-dynamic-refine / no-single-sei
  22. Default                                  : Yes
  23. Forced                                   : No
  24. Color range                              : Limited
  25. Color primaries                          : BT.2020
  26. Transfer characteristics                 : PQ
  27. Matrix coefficients                      : BT.2020 non-constant
  28. Mastering display color primaries        : Display P3
  29. Mastering display luminance              : min: 0.0050 cd/m2, max: 1000 cd/m2
  30. Maximum Content Light Level              : 1001 cd/m2
  31. Maximum Frame-Average Light Level        : 328 cd/m2

  32. Audio
  33. ID                                       : 2
  34. Format                                   : DTS
  35. Format/Info                              : Digital Theater Systems
  36. Format profile                           : X / MA / Core
  37. Codec ID                                 : A_DTS
  38. Duration                                 : 2 h 20 min
  39. Bit rate mode                            : Variable / Variable / Constant
  40. Bit rate                                 : 7 453 kb/s / 7 453 kb/s / 1 509 kb/s
  41. Channel(s)                               : Object Based / 8 channels / 6 channels
  42. Channel positions                        : Object Based / Front: L C R, Side: L R, Back: L R, LFE / Front: L C R, Side: L R, LFE
  43. Sampling rate                            :  / 48.0 kHz / 48.0 kHz
  44. Frame rate                               : 93.750 FPS (512 SPF)
  45. Bit depth                                :  / 24 bits / 24 bits
  46. Compression mode                         :  / Lossless / Lossy
  47. Stream size                              : 7.31 GiB (19%)
  48. Language                                 : English
  49. Default                                  : Yes
  50. Forced                                   : No

  51. Text #1
  52. ID                                       : 3
  53. Format                                   : PGS
  54. Muxing mode                              : zlib
  55. Codec ID                                 : S_HDMV/PGS
  56. Codec ID/Info                            : Picture based subtitle format used on BDs/HD-DVDs
  57. Duration                                 : 2 h 18 min
  58. Bit rate                                 : 27.8 kb/s
  59. Count of elements                        : 2885
  60. Stream size                              : 27.6 MiB (0%)
  61. Language                                 : English
  62. Default                                  : No
  63. Forced                                   : No

  64. Text #2
  65. ID                                       : 4
  66. Format                                   : PGS
  67. Muxing mode                              : zlib
  68. Codec ID                                 : S_HDMV/PGS
  69. Codec ID/Info                            : Picture based subtitle format used on BDs/HD-DVDs
  70. Duration                                 : 2 h 19 min
  71. Bit rate                                 : 26.1 kb/s
  72. Count of elements                        : 2644
  73. Stream size                              : 26.0 MiB (0%)
  74. Language                                 : Portuguese
  75. Default                                  : No
  76. Forced                                   : No

  77. Text #3
  78. ID                                       : 5
  79. Format                                   : PGS
  80. Muxing mode                              : zlib
  81. Codec ID                                 : S_HDMV/PGS
  82. Codec ID/Info                            : Picture based subtitle format used on BDs/HD-DVDs
  83. Duration                                 : 2 h 19 min
  84. Bit rate                                 : 1 173 b/s
  85. Count of elements                        : 199
  86. Stream size                              : 1.17 MiB (0%)
  87. Language                                 : Spanish
  88. Default                                  : No
  89. Forced                                   : No

  90. Text #4
  91. ID                                       : 6
  92. Format                                   : PGS
  93. Muxing mode                              : zlib
  94. Codec ID                                 : S_HDMV/PGS
  95. Codec ID/Info                            : Picture based subtitle format used on BDs/HD-DVDs
  96. Duration                                 : 2 h 19 min
  97. Bit rate                                 : 25.0 kb/s
  98. Count of elements                        : 2631
  99. Stream size                              : 24.9 MiB (0%)
  100. Language                                 : Spanish
  101. Default                                  : No
  102. Forced                                   : No

  103. Text #5
  104. ID                                       : 7
  105. Format                                   : PGS
  106. Muxing mode                              : zlib
  107. Codec ID                                 : S_HDMV/PGS
  108. Codec ID/Info                            : Picture based subtitle format used on BDs/HD-DVDs
  109. Duration                                 : 2 h 19 min
  110. Bit rate                                 : 25.9 kb/s
  111. Count of elements                        : 2510
  112. Stream size                              : 25.8 MiB (0%)
  113. Language                                 : French
  114. Default                                  : No
  115. Forced                                   : No

  116. Text #6
  117. ID                                       : 8
  118. Format                                   : PGS
  119. Muxing mode                              : zlib
  120. Codec ID                                 : S_HDMV/PGS
  121. Codec ID/Info                            : Picture based subtitle format used on BDs/HD-DVDs
  122. Duration                                 : 2 h 19 min
  123. Bit rate                                 : 712 b/s
  124. Count of elements                        : 111
  125. Stream size                              : 727 KiB (0%)
  126. Language                                 : French
  127. Default                                  : No
  128. Forced                                   : No

  129. Text #7
  130. ID                                       : 9
  131. Format                                   : PGS
  132. Muxing mode                              : zlib
  133. Codec ID                                 : S_HDMV/PGS
  134. Codec ID/Info                            : Picture based subtitle format used on BDs/HD-DVDs
  135. Duration                                 : 2 h 19 min
  136. Bit rate                                 : 19.6 kb/s
  137. Count of elements                        : 2591
  138. Stream size                              : 19.5 MiB (0%)
  139. Language                                 : Japanese
  140. Default                                  : No
  141. Forced                                   : No

  142. Text #8
  143. ID                                       : 10
  144. Format                                   : PGS
  145. Muxing mode                              : zlib
  146. Codec ID                                 : S_HDMV/PGS
  147. Codec ID/Info                            : Picture based subtitle format used on BDs/HD-DVDs
  148. Duration                                 : 2 h 18 min
  149. Bit rate                                 : 995 b/s
  150. Count of elements                        : 212
  151. Stream size                              : 1 009 KiB (0%)
  152. Language                                 : Japanese
  153. Default                                  : No
  154. Forced                                   : No

  155. Menu
  156. 00:00:00.000                             : en:00:00:00.000
  157. 00:11:30.273                             : en:00:11:30.273
  158. 00:17:51.737                             : en:00:17:51.737
  159. 00:22:14.083                             : en:00:22:14.083
  160. 00:30:29.786                             : en:00:30:29.786
  161. 00:35:20.827                             : en:00:35:20.827
  162. 00:44:32.378                             : en:00:44:32.378
  163. 00:51:09.858                             : en:00:51:09.858
  164. 00:58:44.187                             : en:00:58:44.187
  165. 01:04:26.863                             : en:01:04:26.863
  166. 01:14:00.769                             : en:01:14:00.769
  167. 01:22:53.301                             : en:01:22:53.301
  168. 01:28:44.819                             : en:01:28:44.819
  169. 01:35:04.699                             : en:01:35:04.699
  170. 01:41:46.225                             : en:01:41:46.225
  171. 01:48:05.520                             : en:01:48:05.520
  172. 01:53:59.833                             : en:01:53:59.833
  173. 02:03:00.581                             : en:02:03:00.581
  174. 02:07:20.424                             : en:02:07:20.424
  175. 02:11:40.350                             : en:02:11:40.350
复制代码

复制代码

罗宾汉/侠盗·骄雄 Robin.Hood.2010.THEATRICAL.2160p.BluRay.x265.10bit.HDR.DTS-X.7.1-WhiteRhino 38.61GB-2.png 罗宾汉/侠盗·骄雄 Robin.Hood.2010.THEATRICAL.2160p.BluRay.x265.10bit.HDR.DTS-X.7.1-WhiteRhino 38.61GB-3.png 罗宾汉/侠盗·骄雄 Robin.Hood.2010.THEATRICAL.2160p.BluRay.x265.10bit.HDR.DTS-X.7.1-WhiteRhino 38.61GB-4.png






回复

使用道具 举报

蓝光币
326
发表于 2018-9-15 11:49:53 | 显示全部楼层
强烈支持楼主ing……
回复 支持 反对

使用道具 举报

蓝光币
326
发表于 2018-9-18 07:51:16 | 显示全部楼层
强烈支持楼主ing……
回复 支持 反对

使用道具 举报

蓝光币
3738
发表于 2018-9-24 19:56:01 | 显示全部楼层
谢谢楼主分享
回复 支持 反对

使用道具 举报

蓝光币
3738
发表于 2018-10-26 00:18:00 | 显示全部楼层
谢谢楼主分享
回复 支持 反对

使用道具 举报

蓝光币
641
发表于 2018-11-11 12:15:17 | 显示全部楼层
激动人心,无法言表!
回复 支持 反对

使用道具 举报

蓝光币
641
发表于 2018-11-12 11:12:37 | 显示全部楼层
真是难得给力的帖子啊。
回复 支持 反对

使用道具 举报

蓝光币
641
发表于 2018-11-13 21:35:58 | 显示全部楼层
激动人心,无法言表!
回复 支持 反对

使用道具 举报

蓝光币
1521
发表于 2020-6-2 11:32:02 | 显示全部楼层
太好啦&萬分感謝版主的無私發佈分享%
回复 支持 反对

使用道具 举报

懒得打字嘛,点击右侧快捷回复 【右侧内容,后台自定义】
您需要登录后才可以回帖 登录 | 立即加入

本版积分规则

Archiver|小黑屋| 蓝光电影网 |网站地图

Copyright © 2021 Comsenz Inc. Powered by 蓝光电影网

蓝光电影网

本站内容由用户自主分享和转载自互联网,转载目的在于传递更多信息,并不代表本网赞同其观点和对其真实性负责。

如有侵权、违反国家法律政策行为,请联系我们,我们会第一时间及时清除和处理!

举报反馈邮箱:[email protected]

快速回复 返回顶部 返回列表