找回密码

蓝光电影网

查看: 1873|回复: 6

[8bit.SDR] 罗宾汉/侠盗·骄雄 Robin.Hood.2010.UNRATED.2160p.BluRay.x264.8bit.SDR.DTS-X.7.1-SWTYBLZ 58.27GB

[复制链接]
蓝光币
623
发表于 2018-9-14 15:12:18 | 显示全部楼层 |阅读模式
罗宾汉/侠盗·骄雄 Robin.Hood.2010.UNRATED.2160p.BluRay.x264.8bit.SDR.DTS-X.7.1-SWTYBLZ 58.27GB-1.jpg
◎译  名 罗宾汉/侠盗·骄雄(港)
◎片  名 Robin Hood
◎年  代 2010
◎产  地 美国/英国
◎类  别 行动/冒险/剧情
◎语  言 英语
◎上映日期 2010-05-12(英国)/2010-06-11(中国大陆)
◎豆瓣评分 6.7/10 from 21,401 users
◎豆瓣链接 https://movie.douban.com/subject/2062677/
◎片  长 140 分钟/131 分钟(戛纳电影节)/156 分钟(导演剪辑版)
◎导  演 雷德利·斯科特 Ridley Scott
◎主  演 罗素·克劳 Russell Crowe
      凯特·布兰切特 Cate Blanchett
      威廉·赫特 William Hurt
      马克·斯特朗 Mark Strong
      马克斯·冯·西多 Max von Sydow
      奥斯卡·伊撒克 Oscar Isaac
      马修·麦克费登 Matthew Macfadyen
      丹尼·赫斯顿 Danny Huston
      艾琳·阿特金斯 Eileen Atkins
      马克·阿蒂 Mark Addy
      蕾雅·赛杜 Léa Seydoux

◎简  介

  13世纪,大英帝国在狮心王理查一世(丹尼·赫斯顿 Danny Huston 饰)的率领下与来犯的法国军队展开酣战。力大无穷、勇猛善战的罗宾·朗斯特莱德(罗素·克劳 Russell Crowe 饰)是这群英国战士中的一员,作为射手的他曾随理查加入过十字军东征,在对法的战争中也表示英勇。可是狮心王遭受诡计刺杀,罗宾接管与国王一同遇刺的罗伯特?洛克斯利的遗言,摇身酿成罗伯特回到英国。在王宫骗吃骗喝事后,罗宾如约来到罗伯特的故乡诺丁汉,他不但获得罗伯特父亲的准予继续假扮其儿子,还意外得知了自己的身世之谜。与此同时,法国野心勃勃,觊觎着英国的国土,而英国国内又乱相丛生,危机四伏。
  在暗流涌动的大时代下,罗宾似乎了然了自己的保存使命,未几后他拿起长弓,投入深林,开启了耐久不衰的罗宾汉的传闻……

◎获奖情况

  第12届美国青少年挑选奖  (2010)
  最好行动冒险电影(提名)
  最好行动冒险电影男演员(提名) 罗素·克劳
  最好行动冒险电影女演员(提名) 凯特·布兰切特

  1. Video
  2. ID                                       : 1
  3. Format                                   : AVC
  4. Format/Info                              : Advanced Video Codec
  5. Format profile                           : [url=/cdn-cgi/l/email-protection][email protected][/url]
  6. Format settings                          : CABAC / 5 Ref Frames
  7. Format settings, CABAC                   : Yes
  8. Format settings, RefFrames               : 5 frames
  9. Codec ID                                 : V_MPEG4/ISO/AVC
  10. Duration                                 : 2 h 35 min
  11. Bit rate                                 : 45.3 Mb/s
  12. Width                                    : 3 840 pixels
  13. Height                                   : 1 600 pixels
  14. Display aspect ratio                     : 2.40:1
  15. Frame rate mode                          : Constant
  16. Frame rate                               : 23.976 (24000/1001) FPS
  17. Color space                              : YUV
  18. Chroma subsampling                       : 4:2:0
  19. Bit depth                                : 8 bits
  20. Scan type                                : Progressive
  21. Bits/(Pixel*Frame)                       : 0.307
  22. Stream size                              : 49.3 GiB (85%)
  23. Title                                    : Robin.Hood.2010.UNRATED.2160p.BluRay.x264.8bit.SDR.DTS-X.7.1-SWTYBLZ
  24. Writing library                          : x264 core 155 r2901 7d0ff22
  25. Encoding settings                        : cabac=1 / ref=5 / deblock=1:-1:-1 / analyse=0x3:0x113 / me=umh / subme=10 / psy=1 / psy_rd=1.00:0.15 / mixed_ref=1 / me_range=48 / chroma_me=1 / trellis=2 / 8x8dct=1 / cqm=0 / deadzone=21,11 / fast_pskip=1 / chroma_qp_offset=-3 / threads=50 / lookahead_threads=4 / sliced_threads=0 / nr=0 / decimate=0 / interlaced=0 / bluray_compat=0 / constrained_intra=0 / bframes=3 / b_pyramid=2 / b_adapt=2 / b_bias=0 / direct=3 / weightb=1 / open_gop=0 / weightp=2 / keyint=250 / keyint_min=23 / scenecut=40 / intra_refresh=0 / rc_lookahead=50 / rc=crf / mbtree=1 / crf=22.0 / qcomp=0.60 / qpmin=0 / qpmax=69 / qpstep=4 / ip_ratio=1.40 / aq=1:1.00
  26. Language                                 : English
  27. Default                                  : Yes
  28. Forced                                   : No

  29. Audio #1
  30. ID                                       : 2
  31. Format                                   : DTS
  32. Format/Info                              : Digital Theater Systems
  33. Format profile                           : X / MA / Core
  34. Codec ID                                 : A_DTS
  35. Duration                                 : 2 h 35 min
  36. Bit rate mode                            : Variable / Variable / Constant
  37. Bit rate                                 : 7 421 kb/s / 7 421 kb/s / 1 509 kb/s
  38. Channel(s)                               : Object Based / 8 channels / 6 channels
  39. Channel positions                        : Object Based / Front: L C R, Side: L R, Back: L R, LFE / Front: L C R, Side: L R, LFE
  40. Sampling rate                            :  / 48.0 kHz / 48.0 kHz
  41. Frame rate                               : 93.750 FPS (512 SPF)
  42. Bit depth                                :  / 24 bits / 24 bits
  43. Compression mode                         :  / Lossless / Lossy
  44. Stream size                              : 8.08 GiB (14%)
  45. Title                                    : Robin.Hood.2010.UNRATED.2160p.BluRay.x264.8bit.SDR.DTS-X.7.1-SWTYBLZ
  46. Language                                 : English
  47. Default                                  : Yes
  48. Forced                                   : No

  49. Audio #2
  50. ID                                       : 3
  51. Format                                   : AC-3
  52. Format/Info                              : Audio Coding 3
  53. Codec ID                                 : A_AC3
  54. Duration                                 : 2 h 35 min
  55. Bit rate mode                            : Constant
  56. Bit rate                                 : 640 kb/s
  57. Channel(s)                               : 6 channels
  58. Channel positions                        : Front: L C R, Side: L R, LFE
  59. Sampling rate                            : 48.0 kHz
  60. Frame rate                               : 31.250 FPS (1536 SPF)
  61. Bit depth                                : 16 bits
  62. Compression mode                         : Lossy
  63. Stream size                              : 713 MiB (1%)
  64. Title                                    : Robin.Hood.2010.UNRATED.2160p.BluRay.x264.8bit.SDR.DTS-X.7.1-SWTYBLZ
  65. Language                                 : English
  66. Service kind                             : Complete Main
  67. Default                                  : No
  68. Forced                                   : No

  69. Text #1
  70. ID                                       : 4
  71. Format                                   : UTF-8
  72. Codec ID                                 : S_TEXT/UTF8
  73. Codec ID/Info                            : UTF-8 Plain Text
  74. Duration                                 : 2 h 27 min
  75. Bit rate                                 : 39 b/s
  76. Count of elements                        : 1414
  77. Stream size                              : 42.2 KiB (0%)
  78. Title                                    : English-SRT
  79. Language                                 : English
  80. Default                                  : Yes
  81. Forced                                   : No

  82. Text #2
  83. ID                                       : 5
  84. Format                                   : PGS
  85. Muxing mode                              : zlib
  86. Codec ID                                 : S_HDMV/PGS
  87. Codec ID/Info                            : Picture based subtitle format used on BDs/HD-DVDs
  88. Duration                                 : 2 h 34 min
  89. Bit rate                                 : 27.8 kb/s
  90. Count of elements                        : 3209
  91. Stream size                              : 30.6 MiB (0%)
  92. Title                                    : English-PGS
  93. Language                                 : English
  94. Default                                  : No
  95. Forced                                   : No

  96. Text #3
  97. ID                                       : 6
  98. Format                                   : PGS
  99. Muxing mode                              : zlib
  100. Codec ID                                 : S_HDMV/PGS
  101. Codec ID/Info                            : Picture based subtitle format used on BDs/HD-DVDs
  102. Duration                                 : 2 h 34 min
  103. Bit rate                                 : 26.0 kb/s
  104. Count of elements                        : 2798
  105. Stream size                              : 28.8 MiB (0%)
  106. Title                                    : French-PGS
  107. Language                                 : French
  108. Default                                  : No
  109. Forced                                   : No

  110. Text #4
  111. ID                                       : 7
  112. Format                                   : PGS
  113. Muxing mode                              : zlib
  114. Codec ID                                 : S_HDMV/PGS
  115. Codec ID/Info                            : Picture based subtitle format used on BDs/HD-DVDs
  116. Duration                                 : 2 h 34 min
  117. Bit rate                                 : 25.0 kb/s
  118. Count of elements                        : 2931
  119. Stream size                              : 27.7 MiB (0%)
  120. Title                                    : Spanish-PGS
  121. Language                                 : Spanish
  122. Default                                  : No
  123. Forced                                   : No

  124. Text #5
  125. ID                                       : 8
  126. Format                                   : PGS
  127. Muxing mode                              : zlib
  128. Codec ID                                 : S_HDMV/PGS
  129. Codec ID/Info                            : Picture based subtitle format used on BDs/HD-DVDs
  130. Duration                                 : 2 h 34 min
  131. Bit rate                                 : 19.5 kb/s
  132. Count of elements                        : 2909
  133. Stream size                              : 21.6 MiB (0%)
  134. Title                                    : Japanese-PGS
  135. Language                                 : Japanese
  136. Default                                  : No
  137. Forced                                   : No

  138. Text #6
  139. ID                                       : 9
  140. Format                                   : PGS
  141. Muxing mode                              : zlib
  142. Codec ID                                 : S_HDMV/PGS
  143. Codec ID/Info                            : Picture based subtitle format used on BDs/HD-DVDs
  144. Duration                                 : 2 h 34 min
  145. Bit rate                                 : 25.9 kb/s
  146. Count of elements                        : 2944
  147. Stream size                              : 28.7 MiB (0%)
  148. Title                                    : Portuguese-PGS
  149. Language                                 : Portuguese
  150. Default                                  : No
  151. Forced                                   : No

  152. Menu
  153. 00:00:00.000                             : :Chapter 1
  154. 00:12:05.975                             : :Chapter 2
  155. 00:18:27.439                             : :Chapter 3
  156. 00:25:11.551                             : :Chapter 4
  157. 00:33:31.425                             : :Chapter 5
  158. 00:38:36.981                             : :Chapter 6
  159. 00:48:42.586                             : :Chapter 7
  160. 00:57:11.886                             : :Chapter 8
  161. 01:04:14.308                             : :Chapter 9
  162. 01:10:41.612                             : :Chapter 10
  163. 01:23:24.624                             : :Chapter 11
  164. 01:32:17.114                             : :Chapter 12
  165. 01:40:30.148                             : :Chapter 13
  166. 01:49:15.882                             : :Chapter 14
  167. 01:56:06.417                             : :Chapter 15
  168. 02:02:29.091                             : :Chapter 16
  169. 02:09:20.669                             : :Chapter 17
  170. 02:18:21.417                             : :Chapter 18
  171. 02:22:48.684                             : :Chapter 19
  172. 02:27:08.611                             : :Chapter 20
复制代码

复制代码

罗宾汉/侠盗·骄雄 Robin.Hood.2010.UNRATED.2160p.BluRay.x264.8bit.SDR.DTS-X.7.1-SWTYBLZ 58.27GB-2.png 罗宾汉/侠盗·骄雄 Robin.Hood.2010.UNRATED.2160p.BluRay.x264.8bit.SDR.DTS-X.7.1-SWTYBLZ 58.27GB-3.png 罗宾汉/侠盗·骄雄 Robin.Hood.2010.UNRATED.2160p.BluRay.x264.8bit.SDR.DTS-X.7.1-SWTYBLZ 58.27GB-4.png 罗宾汉/侠盗·骄雄 Robin.Hood.2010.UNRATED.2160p.BluRay.x264.8bit.SDR.DTS-X.7.1-SWTYBLZ 58.27GB-5.png 罗宾汉/侠盗·骄雄 Robin.Hood.2010.UNRATED.2160p.BluRay.x264.8bit.SDR.DTS-X.7.1-SWTYBLZ 58.27GB-6.png 罗宾汉/侠盗·骄雄 Robin.Hood.2010.UNRATED.2160p.BluRay.x264.8bit.SDR.DTS-X.7.1-SWTYBLZ 58.27GB-7.png 罗宾汉/侠盗·骄雄 Robin.Hood.2010.UNRATED.2160p.BluRay.x264.8bit.SDR.DTS-X.7.1-SWTYBLZ 58.27GB-8.png






回复

使用道具 举报

蓝光币
94
发表于 2018-9-16 16:25:36 | 显示全部楼层
强烈支持楼主ing……
回复 支持 反对

使用道具 举报

蓝光币
642
发表于 2018-11-14 16:44:35 | 显示全部楼层
激动人心,无法言表!
回复 支持 反对

使用道具 举报

懒得打字嘛,点击右侧快捷回复 【右侧内容,后台自定义】
您需要登录后才可以回帖 登录 | 立即加入

本版积分规则

Archiver|小黑屋| 蓝光电影网 |网站地图

Copyright © 2021 Comsenz Inc. Powered by 蓝光电影网

蓝光电影网

本站内容由用户自主分享和转载自互联网,转载目的在于传递更多信息,并不代表本网赞同其观点和对其真实性负责。

如有侵权、违反国家法律政策行为,请联系我们,我们会第一时间及时清除和处理!

举报反馈邮箱:[email protected]

快速回复 返回顶部 返回列表