找回密码

蓝光电影网

查看: 901|回复: 1

[喜剧] 制片人/制作人 The.Producers.1967.REMASTERED.1080p.BluRay.x264-SPOOKS 6.58GB

[复制链接]
蓝光币
623
发表于 2018-9-14 15:32:18 | 显示全部楼层 |阅读模式

制片人/建造人 The.Producers.1967.REMASTERED.1080p.BluRay.x264-SPOOKS 6.58GB-1.jpg
◎译  名 制片人/建造人/金牌建造人/发家奇策
◎片  名 The Producers
◎年  代 1968
◎产  地 美国
◎类  别 笑剧
◎语  言 英语/德语
◎上映日期 1968-11-10(美国)
◎豆瓣评分 7.6/10 from 483 users
◎豆瓣链接 https://movie.douban.com/subject/1303293/
◎片  长 88 分钟
◎导  演 梅尔·布鲁克斯 Mel Brooks
◎主  演 泽罗·莫斯苔 Zero Mostel
      吉恩·怀尔德 Gene Wilder
      迪克·肖恩 Dick Shawn
      肯尼思·马尔斯 Kenneth Mars
      李·梅雷迪思 Lee Meredith
      梅尔·布鲁克斯 Mel Brooks
      埃斯特尔温伍德 Estelle Winwood
      蕾妮·泰勒 Renée Taylor
      威廉·赫基 William Hickey
      Barney Martin
      Shimen Ruskin
      Frank Campanella
      乔西普·艾利克 Josip Elic
      Madelyn Cates
      John Zoller
      Brutus Peck
      Anne Ives
      Amelie Barleon
      Lisa Kirk
      Nell Harrison
      Christopher Hewett
      Andréas Voutsinas
      Bernie Allen
      Robert Dahdah
      Michael Davis
      Diana Eden
      Linda Gillen
      Trent Gough
      Zale Kessler
      Bill Macy
      Lore Noto
      Robert Paget
      Tucker Smith

◎简  介

  一位落魄的原百老汇制片人跟一个“高级经济师”联手,吸引风险投资来排戏,以及若何搞砸这部叫《希特勒的春季》的戏,好让投资都进他们两小我的腰包。不曾想,那部“鬼话希特勒”版的闹剧大受接待,他们的计划也是以表露,双双上了法庭。

◎获奖情况

  第41届奥斯卡金像奖  (1969)
  最好男配角(提名) 吉恩·怀尔德
  最好原创剧本 梅尔·布鲁克斯

  1. Video
  2. ID                                       : 1
  3. Format                                   : AVC
  4. Format/Info                              : Advanced Video Codec
  5. Format profile                           : [url=/cdn-cgi/l/email-protection][email protected][/url]
  6. Format settings                          : CABAC / 4 Ref Frames
  7. Format settings, CABAC                   : Yes
  8. Format settings, RefFrames               : 4 frames
  9. Codec ID                                 : V_MPEG4/ISO/AVC
  10. Duration                                 : 1 h 29 min
  11. Bit rate                                 : 9 721 kb/s
  12. Width                                    : 1 920 pixels
  13. Height                                   : 1 040 pixels
  14. Display aspect ratio                     : 1.85:1
  15. Frame rate mode                          : Constant
  16. Frame rate                               : 24.000 FPS
  17. Color space                              : YUV
  18. Chroma subsampling                       : 4:2:0
  19. Bit depth                                : 8 bits
  20. Scan type                                : Progressive
  21. Bits/(Pixel*Frame)                       : 0.203
  22. Stream size                              : 6.08 GiB (93%)
  23. Writing library                          : x264 core 157 r2932 303c484
  24. Encoding settings                        : cabac=1 / ref=4 / deblock=1:-3:-3 / analyse=0x3:0x133 / me=umh / subme=8 / psy=1 / psy_rd=1.00:0.00 / mixed_ref=1 / me_range=16 / chroma_me=1 / trellis=1 / 8x8dct=1 / cqm=0 / deadzone=21,11 / fast_pskip=0 / chroma_qp_offset=-2 / threads=24 / lookahead_threads=4 / sliced_threads=0 / nr=0 / decimate=1 / interlaced=0 / bluray_compat=0 / constrained_intra=0 / bframes=3 / b_pyramid=2 / b_adapt=1 / b_bias=0 / direct=3 / weightb=1 / open_gop=0 / weightp=2 / keyint=250 / keyint_min=24 / scenecut=40 / intra_refresh=0 / rc_lookahead=50 / rc=2pass / mbtree=1 / bitrate=9721 / ratetol=1.0 / qcomp=0.60 / qpmin=0 / qpmax=69 / qpstep=4 / cplxblur=20.0 / qblur=0.5 / vbv_maxrate=62500 / vbv_bufsize=78125 / nal_hrd=none / filler=0 / ip_ratio=1.40 / aq=1:1.00
  25. Default                                  : Yes
  26. Forced                                   : No

  27. Audio
  28. ID                                       : 2
  29. Format                                   : DTS
  30. Format/Info                              : Digital Theater Systems
  31. Mode                                     : 16
  32. Format settings, Endianness              : Big
  33. Codec ID                                 : A_DTS
  34. Duration                                 : 1 h 29 min
  35. Bit rate mode                            : Constant
  36. Bit rate                                 : 768 kb/s
  37. Channel(s)                               : 6 channels
  38. Channel positions                        : Front: L C R, Side: L R, LFE
  39. Sampling rate                            : 48.0 kHz
  40. Frame rate                               : 93.750 FPS (512 SPF)
  41. Bit depth                                : 24 bits
  42. Compression mode                         : Lossy
  43. Stream size                              : 492 MiB (7%)
  44. Language                                 : English
  45. Default                                  : Yes
  46. Forced                                   : No

  47. Menu
  48. 00:00:00.000                             : en:00:00:00.000
  49. 00:07:59.625                             : en:00:07:59.625
  50. 00:14:48.875                             : en:00:14:48.875
  51. 00:22:04.250                             : en:00:22:04.250
  52. 00:29:41.708                             : en:00:29:41.708
  53. 00:36:45.708                             : en:00:36:45.708
  54. 00:43:25.417                             : en:00:43:25.417
  55. 00:49:55.583                             : en:00:49:55.583
  56. 00:57:28.042                             : en:00:57:28.042
  57. 01:05:40.583                             : en:01:05:40.583
  58. 01:12:54.833                             : en:01:12:54.833
  59. 01:20:39.833                             : en:01:20:39.833
复制代码

复制代码

制片人/建造人 The.Producers.1967.REMASTERED.1080p.BluRay.x264-SPOOKS 6.58GB-2.jpg





回复

使用道具 举报

懒得打字嘛,点击右侧快捷回复 【右侧内容,后台自定义】
您需要登录后才可以回帖 登录 | 立即加入

本版积分规则

Archiver|小黑屋| 蓝光电影网 |网站地图

Copyright © 2021 Comsenz Inc. Powered by 蓝光电影网

蓝光电影网

本站内容由用户自主分享和转载自互联网,转载目的在于传递更多信息,并不代表本网赞同其观点和对其真实性负责。

如有侵权、违反国家法律政策行为,请联系我们,我们会第一时间及时清除和处理!

举报反馈邮箱:[email protected]

快速回复 返回顶部 返回列表