找回密码

蓝光电影网

查看: 662|回复: 2

[动作] 游侠索罗:星球大战外传/韩索罗:星球大战外传 Solo.A.Star.Wars.Story.2018.1080p.BluRay.x264.DTS-HD.MA.7.1-FGT 14.61GB

[复制链接]
蓝光币
623
发表于 2018-9-14 15:32:40 | 显示全部楼层 |阅读模式

游侠索罗:星球大战外传/韩索罗:星球大战外传 Solo.A.Star.Wars.Story.2018.1080p.BluRay.x264.DTS-HD.MA.7.1-FGT 14.61GB-1.jpg
◎译  名 游侠索罗:星球大战外传/韩索罗:星球大战外传(港)/星球大战外传:游侠索罗/星球大战外传:索罗/星球大战韩·索罗外传/游侠索罗/韩索罗外传/星战外传2
◎片  名 Solo: A Star Wars Story
◎年  代 2018
◎产  地 美国
◎类  别 行动/科幻/冒险
◎语  言 英语
◎上映日期 2018-05-10(洛杉矶首映)/2018-05-25(美国)/2018-05-25(中国大陆)
◎豆瓣评分 7.0/10 from 23,767 users
◎豆瓣链接 https://movie.douban.com/subject/25900947/
◎片  长 135分钟
◎导  演 朗·霍华德 Ron Howard
◎主  演 阿尔登·埃伦瑞奇 Alden Ehrenreich
      艾米莉亚·克拉克 Emilia Clarke
      伍迪·哈里森 Woody Harrelson
      唐纳德·格洛弗 Donald Glover
      保罗·贝坦尼 Paul Bettany
      乔纳斯·索塔莫 Joonas Suotamo
      菲比·沃勒-布里奇 Phoebe Waller-Bridge
      沃维克·戴维斯 Warwick Davis
      坦迪·牛顿 Thandie Newton
      克林特·霍华德 Clint Howard
      伊安·肯尼 Ian Kenny
      理查德·迪克森 Richard Dixon

◎简  介

  在《游侠索罗》中,影迷们将跟从“千年隼号”及银河系中最受爱戴的“无赖”韩·索罗,迎来全新的银河系探险旅程。经过在黑暗危险的罪犯地下社会中的重重冒险,韩·索罗碰见了他未来强大的副驾驶丘巴卡、以及污名昭著的赌徒兰多·卡瑞辛,配合展开了一场星战传奇中最不“正统”的豪杰 过程。

  1. Video
  2. ID                                       : 1
  3. Format                                   : AVC
  4. Format/Info                              : Advanced Video Codec
  5. Format profile                           : [url=/cdn-cgi/l/email-protection][email protected][/url]
  6. Format settings                          : CABAC / 5 Ref Frames
  7. Format settings, CABAC                   : Yes
  8. Format settings, ReFrames                : 5 frames
  9. Codec ID                                 : V_MPEG4/ISO/AVC
  10. Duration                                 : 2 h 14 min
  11. Bit rate                                 : 10.1 Mb/s
  12. Width                                    : 1 920 pixels
  13. Height                                   : 808 pixels
  14. Display aspect ratio                     : 2.40:1
  15. Frame rate mode                          : Constant
  16. Frame rate                               : 23.976 (24000/1001) FPS
  17. Color space                              : YUV
  18. Chroma subsampling                       : 4:2:0
  19. Bit depth                                : 8 bits
  20. Scan type                                : Progressive
  21. Bits/(Pixel*Frame)                       : 0.272
  22. Stream size                              : 9.51 GiB (65%)
  23. Title                                    : Solo.A.Star.Wars.Story.2018.1080p.BluRay.x264.DTS-HD.MA.7.1-FGT
  24. Writing library                          : x264 core 157 r2932 303c484
  25. Encoding settings                        : cabac=1 / ref=5 / deblock=1:-3:-3 / analyse=0x3:0x113 / me=umh / subme=8 / psy=1 / psy_rd=1.00:0.00 / mixed_ref=1 / me_range=16 / chroma_me=1 / trellis=1 / 8x8dct=1 / cqm=0 / deadzone=21,11 / fast_pskip=1 / chroma_qp_offset=-2 / threads=24 / lookahead_threads=4 / sliced_threads=0 / nr=0 / decimate=1 / interlaced=0 / bluray_compat=0 / constrained_intra=0 / bframes=3 / b_pyramid=2 / b_adapt=1 / b_bias=0 / direct=3 / weightb=1 / open_gop=0 / weightp=2 / keyint=250 / keyint_min=23 / scenecut=40 / intra_refresh=0 / rc_lookahead=50 / rc=2pass / mbtree=1 / bitrate=10102 / ratetol=1.0 / qcomp=0.60 / qpmin=0 / qpmax=69 / qpstep=4 / cplxblur=20.0 / qblur=0.5 / ip_ratio=1.40 / aq=1:1.00
  26. Language                                 : English
  27. Default                                  : Yes
  28. Forced                                   : No

  29. Audio
  30. ID                                       : 2
  31. Format                                   : DTS
  32. Format/Info                              : Digital Theater Systems
  33. Format profile                           : MA / Core
  34. Codec ID                                 : A_DTS
  35. Duration                                 : 2 h 14 min
  36. Bit rate mode                            : Variable / Constant
  37. Bit rate                                 : 5 407 kb/s / 1 509 kb/s
  38. Channel(s)                               : 8 channels / 6 channels
  39. Channel positions                        : Front: L C R, Side: L R, Back: L R, LFE / Front: L C R, Side: L R, LFE
  40. Sampling rate                            : 48.0 kHz
  41. Frame rate                               : 93.750 FPS (512 SPF)
  42. Bit depth                                : 24 bits
  43. Compression mode                         : Lossless / Lossy
  44. Stream size                              : 5.09 GiB (35%)
  45. Title                                    : Solo.A.Star.Wars.Story.2018.1080p.BluRay.x264.DTS-HD.MA.7.1-FGT
  46. Language                                 : English
  47. Default                                  : Yes
  48. Forced                                   : No

  49. Text #1
  50. ID                                       : 3
  51. Format                                   : UTF-8
  52. Codec ID                                 : S_TEXT/UTF8
  53. Codec ID/Info                            : UTF-8 Plain Text
  54. Duration                                 : 1 h 17 min
  55. Bit rate                                 : 0 b/s
  56. Count of elements                        : 16
  57. Stream size                              : 362 Bytes (0%)
  58. Title                                    : English-FORCED-SRT
  59. Language                                 : English
  60. Default                                  : Yes
  61. Forced                                   : Yes

  62. Text #2
  63. ID                                       : 4
  64. Format                                   : UTF-8
  65. Codec ID                                 : S_TEXT/UTF8
  66. Codec ID/Info                            : UTF-8 Plain Text
  67. Duration                                 : 2 h 5 min
  68. Bit rate                                 : 56 b/s
  69. Count of elements                        : 1975
  70. Stream size                              : 52.1 KiB (0%)
  71. Title                                    : English-SRT
  72. Language                                 : English
  73. Default                                  : No
  74. Forced                                   : No

  75. Text #3
  76. ID                                       : 5
  77. Format                                   : PGS
  78. Muxing mode                              : zlib
  79. Codec ID                                 : S_HDMV/PGS
  80. Codec ID/Info                            : Picture based subtitle format used on BDs/HD-DVDs
  81. Duration                                 : 2 h 5 min
  82. Bit rate                                 : 42.3 kb/s
  83. Count of elements                        : 4496
  84. Stream size                              : 37.9 MiB (0%)
  85. Title                                    : English-PGS
  86. Language                                 : English
  87. Default                                  : No
  88. Forced                                   : No
复制代码

复制代码

游侠索罗:星球大战外传/韩索罗:星球大战外传 Solo.A.Star.Wars.Story.2018.1080p.BluRay.x264.DTS-HD.MA.7.1-FGT 14.61GB-2.png 游侠索罗:星球大战外传/韩索罗:星球大战外传 Solo.A.Star.Wars.Story.2018.1080p.BluRay.x264.DTS-HD.MA.7.1-FGT 14.61GB-3.png 游侠索罗:星球大战外传/韩索罗:星球大战外传 Solo.A.Star.Wars.Story.2018.1080p.BluRay.x264.DTS-HD.MA.7.1-FGT 14.61GB-4.png






回复

使用道具 举报

蓝光币
300
发表于 2018-9-14 23:28:14 | 显示全部楼层
真的好片,谢谢提供
回复 支持 反对

使用道具 举报

懒得打字嘛,点击右侧快捷回复 【右侧内容,后台自定义】
您需要登录后才可以回帖 登录 | 立即加入

本版积分规则

Archiver|小黑屋| 蓝光电影网 |网站地图

Copyright © 2021 Comsenz Inc. Powered by 蓝光电影网

蓝光电影网

本站内容由用户自主分享和转载自互联网,转载目的在于传递更多信息,并不代表本网赞同其观点和对其真实性负责。

如有侵权、违反国家法律政策行为,请联系我们,我们会第一时间及时清除和处理!

举报反馈邮箱:[email protected]

快速回复 返回顶部 返回列表