找回密码

蓝光电影网

查看: 1374|回复: 3

[科幻] 禁地大战 Spacehunter.Adventures.in.the.Forbidden.Zone.1983.1080p.BluRay.x264-REGRET 6.56GB

[复制链接]
蓝光币
623
发表于 2018-9-14 15:34:53 | 显示全部楼层 |阅读模式

禁地大战 Spacehunter.Adventures.in.the.Forbidden.Zone.1983.1080p.BluRay.x264-REGRET 6.56GB-1.jpg
◎译  名 禁地大战
◎片  名 Spacehunter: Adventures in the Forbidden Zone
◎年  代 1983
◎产  地 加拿大/美国
◎类  别 冒险/科幻
◎语  言 英语
◎上映日期 1983-05-20
◎豆瓣评分 /10 from 0 users
◎豆瓣链接 https://movie.douban.com/subject/1302422/
◎片  长 90 分钟
◎导  演 拉蒙特·约翰逊 Lamont Johnson
◎主  演 彼得·斯特劳斯 Peter Strauss
      莫利·林沃德 Molly Ringwald
      埃涅·赫德森 Ernie Hudson
      安德莉亚·马尔科维奇 Andrea Marcovicci
      哈罗德·雷米斯 Harold Ramis

◎简  介

  三个女人所驾驶的宇宙飞船发生题目,告急下降在银河系中一个名为「大地11号」的星球上,没想到,该星球遭到致命疾病肆虐,三个女人是以被当地的独裁者麦纳布(莫利.林沃德 饰)挟持。此时,「宇宙 猎人 」渥夫(彼得.史特罗斯 饰)驾驶着他的救济船展开行动,一路上他碰到了很多危机的状态,还好都在 危在旦夕 之际平安脱身。随着危机 逐一 的化解,渥夫与独裁者麦纳布面临面的时辰越来越接近......他能否能匹敌这群邪恶的外星小怪物,将三名美男从禁地星球中救出来呢?此片不单有松散的行动排场、怪异的场景设想、创意实足的声音殊效,3D三维结果更使其活泼传神......

  1. Video
  2. ID                                       : 1
  3. Format                                   : AVC
  4. Format/Info                              : Advanced Video Codec
  5. Format profile                           : [url=/cdn-cgi/l/email-protection][email protected][/url]
  6. Format settings                          : CABAC / 4 Ref Frames
  7. Format settings, CABAC                   : Yes
  8. Format settings, RefFrames               : 4 frames
  9. Codec ID                                 : V_MPEG4/ISO/AVC
  10. Duration                                 : 1 h 29 min
  11. Bit rate                                 : 9 921 kb/s
  12. Width                                    : 1 920 pixels
  13. Height                                   : 1 080 pixels
  14. Display aspect ratio                     : 16:9
  15. Frame rate mode                          : Constant
  16. Frame rate                               : 23.976 (24000/1001) FPS
  17. Color space                              : YUV
  18. Chroma subsampling                       : 4:2:0
  19. Bit depth                                : 8 bits
  20. Scan type                                : Progressive
  21. Bits/(Pixel*Frame)                       : 0.200
  22. Stream size                              : 6.22 GiB (95%)
  23. Writing library                          : x264 core 155 r2901 7d0ff22
  24. Encoding settings                        : cabac=1 / ref=4 / deblock=1:-3:-3 / analyse=0x3:0x133 / me=umh / subme=9 / psy=1 / psy_rd=1.00:0.00 / mixed_ref=1 / me_range=16 / chroma_me=1 / trellis=2 / 8x8dct=1 / cqm=0 / deadzone=21,11 / fast_pskip=0 / chroma_qp_offset=-2 / threads=12 / lookahead_threads=1 / sliced_threads=0 / nr=0 / decimate=1 / interlaced=0 / bluray_compat=0 / constrained_intra=0 / bframes=3 / b_pyramid=2 / b_adapt=1 / b_bias=0 / direct=3 / weightb=1 / open_gop=0 / weightp=2 / keyint=240 / keyint_min=24 / scenecut=40 / intra_refresh=0 / rc_lookahead=50 / rc=2pass / mbtree=1 / bitrate=9921 / ratetol=1.0 / qcomp=0.60 / qpmin=0 / qpmax=69 / qpstep=4 / cplxblur=20.0 / qblur=0.5 / ip_ratio=1.40 / aq=1:1.00
  25. Language                                 : English
  26. Default                                  : Yes
  27. Forced                                   : No

  28. Audio
  29. ID                                       : 2
  30. Format                                   : FLAC
  31. Format/Info                              : Free Lossless Audio Codec
  32. Codec ID                                 : A_FLAC
  33. Duration                                 : 1 h 29 min
  34. Bit rate mode                            : Variable
  35. Bit rate                                 : 529 kb/s
  36. Channel(s)                               : 2 channels
  37. Channel positions                        : Front: L R
  38. Sampling rate                            : 48.0 kHz
  39. Frame rate                               : 11.719 FPS (4096 SPF)
  40. Bit depth                                : 16 bits
  41. Stream size                              : 340 MiB (5%)
  42. Writing library                          : libFLAC 1.2.1 (UTC 2007-09-17)
  43. Language                                 : English
  44. Default                                  : Yes
  45. Forced                                   : No

  46. Text #1
  47. ID                                       : 3
  48. Format                                   : UTF-8
  49. Codec ID                                 : S_TEXT/UTF8
  50. Codec ID/Info                            : UTF-8 Plain Text
  51. Duration                                 : 1 h 22 min
  52. Bit rate                                 : 41 b/s
  53. Count of elements                        : 898
  54. Stream size                              : 25.2 KiB (0%)
  55. Title                                    : English
  56. Language                                 : English
  57. Default                                  : No
  58. Forced                                   : No

  59. Text #2
  60. ID                                       : 4
  61. Format                                   : UTF-8
  62. Codec ID                                 : S_TEXT/UTF8
  63. Codec ID/Info                            : UTF-8 Plain Text
  64. Duration                                 : 1 h 25 min
  65. Bit rate                                 : 43 b/s
  66. Count of elements                        : 1022
  67. Stream size                              : 27.6 KiB (0%)
  68. Title                                    : SDH
  69. Language                                 : English
  70. Default                                  : No
  71. Forced                                   : No

  72. Menu
  73. 00:00:00.000                             : en:00:00:00.000
  74. 00:06:02.362                             : en:00:06:02.362
  75. 00:12:41.261                             : en:00:12:41.261
  76. 00:21:35.294                             : en:00:21:35.294
  77. 00:27:17.136                             : en:00:27:17.136
  78. 00:31:51.910                             : en:00:31:51.910
  79. 00:39:56.394                             : en:00:39:56.394
  80. 00:48:41.919                             : en:00:48:41.919
  81. 00:54:29.266                             : en:00:54:29.266
  82. 01:04:08.345                             : en:01:04:08.345
  83. 01:17:55.671                             : en:01:17:55.671
  84. 01:26:00.155                             : en:01:26:00.155
复制代码

复制代码

禁地大战 Spacehunter.Adventures.in.the.Forbidden.Zone.1983.1080p.BluRay.x264-REGRET 6.56GB-2.jpg






回复

使用道具 举报

懒得打字嘛,点击右侧快捷回复 【右侧内容,后台自定义】
您需要登录后才可以回帖 登录 | 立即加入

本版积分规则

Archiver|小黑屋| 蓝光电影网 |网站地图

Copyright © 2021 Comsenz Inc. Powered by 蓝光电影网

蓝光电影网

本站内容由用户自主分享和转载自互联网,转载目的在于传递更多信息,并不代表本网赞同其观点和对其真实性负责。

如有侵权、违反国家法律政策行为,请联系我们,我们会第一时间及时清除和处理!

举报反馈邮箱:[email protected]

快速回复 返回顶部 返回列表