找回密码

蓝光电影网

查看: 2039|回复: 4

[科幻] 挑战未来3:残酷猎杀 Nemesis.3.1996.1080p.BluRay.x264-iFPD 5.46GB

[复制链接]
蓝光币
623
发表于 2018-9-14 15:39:30 | 显示全部楼层 |阅读模式

应战未来3:残暴猎杀 Nemesis.3.1996.1080p.BluRay.x264-iFPD 5.46GB-1.jpg
◎译  名 应战未来3:残暴猎杀
◎片  名 Nemesis III: Prey Harder
◎年  代 1996
◎产  地 美国
◎类  别 行动/惊悚/科幻
◎语  言 英语
◎上映日期 1996
◎豆瓣评分 /10 from 0 users
◎豆瓣链接 https://movie.douban.com/subject/5110588/
◎片  长 85分钟
◎导  演 Albert Pyun
◎主  演 Sue Price
      蒂姆·汤默逊 Tim Thomerson
      诺伯特·魏塞尔 Norbert Weisser

◎简  介

  操纵《电子疆场2》留下的片断和一条很是细的故事线,亚历克斯再次与1998年在非洲东部的机械人雇佣兵作战。这一次,亚历克斯发现她有20个半姐妹正在等她回到2077年。中心司令部希望亚历克斯被生擒并扫描,看看她的DNA能否比一般的DNA更强更有力。可是亚历克斯能够太刻薄了,不值得去捕捉。

  1. Video
  2. ID                                       : 1
  3. Format                                   : AVC
  4. Format/Info                              : Advanced Video Codec
  5. Format profile                           : [url=/cdn-cgi/l/email-protection][email protected][/url]
  6. Format settings                          : CABAC / 4 Ref Frames
  7. Format settings, CABAC                   : Yes
  8. Format settings, ReFrames                : 4 frames
  9. Codec ID                                 : V_MPEG4/ISO/AVC
  10. Duration                                 : 1 h 30 min
  11. Bit rate                                 : 8 168 kb/s
  12. Width                                    : 1 920 pixels
  13. Height                                   : 1 080 pixels
  14. Display aspect ratio                     : 16:9
  15. Frame rate mode                          : Constant
  16. Frame rate                               : 24.000 FPS
  17. Color space                              : YUV
  18. Chroma subsampling                       : 4:2:0
  19. Bit depth                                : 8 bits
  20. Scan type                                : Progressive
  21. Bits/(Pixel*Frame)                       : 0.164
  22. Stream size                              : 5.18 GiB (95%)
  23. Writing library                          : x264 core 142 r2431 ac76440
  24. Encoding settings                        : cabac=1 / ref=4 / deblock=1:0:0 / analyse=0x3:0x113 / me=umh / subme=7 / psy=1 / psy_rd=1.00:0.00 / mixed_ref=1 / me_range=16 / chroma_me=1 / trellis=1 / 8x8dct=1 / cqm=0 / deadzone=21,11 / fast_pskip=0 / chroma_qp_offset=-2 / threads=12 / lookahead_threads=2 / sliced_threads=0 / nr=0 / decimate=1 / interlaced=0 / bluray_compat=0 / constrained_intra=0 / bframes=3 / b_pyramid=2 / b_adapt=2 / b_bias=0 / direct=3 / weightb=1 / open_gop=0 / weightp=2 / keyint=250 / keyint_min=24 / scenecut=40 / intra_refresh=0 / rc_lookahead=50 / rc=2pass / mbtree=1 / bitrate=8168 / ratetol=1.0 / qcomp=0.60 / qpmin=0 / qpmax=69 / qpstep=4 / cplxblur=20.0 / qblur=0.5 / ip_ratio=1.40 / aq=1:1.00
  25. Default                                  : Yes
  26. Forced                                   : No

  27. Audio
  28. ID                                       : 2
  29. Format                                   : AC-3
  30. Format/Info                              : Audio Coding 3
  31. Codec ID                                 : A_AC3
  32. Duration                                 : 1 h 30 min
  33. Bit rate mode                            : Constant
  34. Bit rate                                 : 448 kb/s
  35. Channel(s)                               : 6 channels
  36. Channel positions                        : Front: L C R, Side: L R, LFE
  37. Sampling rate                            : 48.0 kHz
  38. Frame rate                               : 31.250 FPS (1536 SPF)
  39. Bit depth                                : 16 bits
  40. Compression mode                         : Lossy
  41. Stream size                              : 291 MiB (5%)
  42. Title                                    : English
  43. Language                                 : English
  44. Service kind                             : Complete Main
  45. Default                                  : Yes
  46. Forced                                   : No
复制代码

复制代码

应战未来3:残暴猎杀 Nemesis.3.1996.1080p.BluRay.x264-iFPD 5.46GB-2.png 应战未来3:残暴猎杀 Nemesis.3.1996.1080p.BluRay.x264-iFPD 5.46GB-3.png 应战未来3:残暴猎杀 Nemesis.3.1996.1080p.BluRay.x264-iFPD 5.46GB-4.png






回复

使用道具 举报

懒得打字嘛,点击右侧快捷回复 【右侧内容,后台自定义】
您需要登录后才可以回帖 登录 | 立即加入

本版积分规则

Archiver|小黑屋| 蓝光电影网 |网站地图

Copyright © 2021 Comsenz Inc. Powered by 蓝光电影网

蓝光电影网

本站内容由用户自主分享和转载自互联网,转载目的在于传递更多信息,并不代表本网赞同其观点和对其真实性负责。

如有侵权、违反国家法律政策行为,请联系我们,我们会第一时间及时清除和处理!

举报反馈邮箱:[email protected]

快速回复 返回顶部 返回列表