找回密码

蓝光电影网

查看: 957|回复: 1

[喜剧] 爱就是这么奇妙/洛杉矶故事 L.A.Story.1991.1080p.BluRay.x264-FCUKU 5.46GB

[复制链接]
蓝光币
623
发表于 2018-9-14 15:39:56 | 显示全部楼层 |阅读模式

爱就是这么奇妙/洛杉矶故事 L.A.Story.1991.1080p.BluRay.x264-FCUKU 5.46GB-1.jpg
◎译  名 爱就是这么奇妙/洛杉矶故事/L?A?故事
◎片  名 L.A. Story
◎年  代 1991
◎产  地 美国
◎类  别 笑剧/剧情/奇异/恋爱
◎语  言 英语
◎上映日期 1991-02-08
◎豆瓣评分 7.5/10 from 29 users
◎豆瓣链接 https://movie.douban.com/subject/1298925/
◎片  长 95 分钟
◎导  演 Mick Jackson
◎主  演 莎拉·杰茜卡·帕克 Sarah Jessica Parker
      史蒂夫·马丁 Steve Martin
      Richard E. Grant

◎简  介

  None

  1. Video
  2. ID                                       : 1
  3. Format                                   : AVC
  4. Format/Info                              : Advanced Video Codec
  5. Format profile                           : [url=/cdn-cgi/l/email-protection][email protected][/url]
  6. Format settings                          : CABAC / 4 Ref Frames
  7. Format settings, CABAC                   : Yes
  8. Format settings, ReFrames                : 4 frames
  9. Muxing mode                              : Header stripping
  10. Codec ID                                 : V_MPEG4/ISO/AVC
  11. Duration                                 : 1 h 31 min
  12. Bit rate                                 : 8 244 kb/s
  13. Width                                    : 1 920 pixels
  14. Height                                   : 1 048 pixels
  15. Display aspect ratio                     : 1.85:1
  16. Frame rate mode                          : Constant
  17. Frame rate                               : 25.000 FPS
  18. Color space                              : YUV
  19. Chroma subsampling                       : 4:2:0
  20. Bit depth                                : 8 bits
  21. Scan type                                : Progressive
  22. Bits/(Pixel*Frame)                       : 0.164
  23. Stream size                              : 5.15 GiB (94%)
  24. Writing library                          : x264 core 125 r2200 999b753
  25. Encoding settings                        : cabac=1 / ref=4 / deblock=1:0:0 / analyse=0x3:0x133 / me=umh / subme=7 / psy=1 / psy_rd=1.00:0.00 / mixed_ref=1 / me_range=16 / chroma_me=1 / trellis=1 / 8x8dct=1 / cqm=0 / deadzone=21,11 / fast_pskip=0 / chroma_qp_offset=-2 / threads=6 / lookahead_threads=1 / sliced_threads=0 / nr=0 / decimate=1 / interlaced=0 / bluray_compat=0 / constrained_intra=0 / bframes=3 / b_pyramid=2 / b_adapt=2 / b_bias=0 / direct=3 / weightb=1 / open_gop=0 / weightp=2 / keyint=250 / keyint_min=25 / scenecut=40 / intra_refresh=0 / rc_lookahead=50 / rc=2pass / mbtree=1 / bitrate=8244 / ratetol=1.0 / qcomp=0.60 / qpmin=0 / qpmax=69 / qpstep=4 / cplxblur=20.0 / qblur=0.5 / ip_ratio=1.40 / aq=1:1.00
  26. Language                                 : English
  27. Default                                  : Yes
  28. Forced                                   : No

  29. Audio
  30. ID                                       : 2
  31. Format                                   : AC-3
  32. Format/Info                              : Audio Coding 3
  33. Muxing mode                              : Header stripping
  34. Codec ID                                 : A_AC3
  35. Duration                                 : 1 h 31 min
  36. Bit rate mode                            : Constant
  37. Bit rate                                 : 320 kb/s
  38. Channel(s)                               : 2 channels
  39. Channel positions                        : Front: L R
  40. Sampling rate                            : 48.0 kHz
  41. Frame rate                               : 31.250 FPS (1536 SPF)
  42. Bit depth                                : 16 bits
  43. Compression mode                         : Lossy
  44. Stream size                              : 209 MiB (4%)
  45. Language                                 : English
  46. Service kind                             : Complete Main
  47. Default                                  : Yes
  48. Forced                                   : No
复制代码

复制代码

爱就是这么奇妙/洛杉矶故事 L.A.Story.1991.1080p.BluRay.x264-FCUKU 5.46GB-2.png 爱就是这么奇妙/洛杉矶故事 L.A.Story.1991.1080p.BluRay.x264-FCUKU 5.46GB-3.png 爱就是这么奇妙/洛杉矶故事 L.A.Story.1991.1080p.BluRay.x264-FCUKU 5.46GB-4.png






回复

使用道具 举报

懒得打字嘛,点击右侧快捷回复 【右侧内容,后台自定义】
您需要登录后才可以回帖 登录 | 立即加入

本版积分规则

Archiver|小黑屋| 蓝光电影网 |网站地图

Copyright © 2021 Comsenz Inc. Powered by 蓝光电影网

蓝光电影网

本站内容由用户自主分享和转载自互联网,转载目的在于传递更多信息,并不代表本网赞同其观点和对其真实性负责。

如有侵权、违反国家法律政策行为,请联系我们,我们会第一时间及时清除和处理!

举报反馈邮箱:[email protected]

快速回复 返回顶部 返回列表