找回密码

蓝光电影网

查看: 906|回复: 2

[恐怖] 叛逆女巫/5女战恶魔 5ive.Girls.2006.1080p.BluRay.x264-BRMP 7.94GB

[复制链接]
蓝光币
623
发表于 2018-9-14 15:41:10 | 显示全部楼层 |阅读模式

叛逆女巫/5女战恶魔 5ive.Girls.2006.1080p.BluRay.x264-BRMP 7.94GB-1.jpg
◎译  名 叛逆女巫/5女战恶魔
◎片  名 5ive Girls
◎年  代 2006
◎产  地 加拿大
◎类  别 可骇/惊悚
◎语  言 英语
◎上映日期 2006-10-10
◎豆瓣评分 5.3/10 from 265 users
◎豆瓣链接 https://movie.douban.com/subject/1902531/
◎片  长 95 分钟
◎导  演 Warren P. Sonoda
◎主  演 Ron Perlman

◎简  介

  五个女巫,五种气力,一个恶魔
  Mark街的天主教女子黉舍自从一位年轻的门生无影无踪地忽然消失今后就被封闭和烧毁了。可是在13年今后,在一位跋扈跋扈的女校长和一位有着麻烦曩昔牧师的带领下,这所黉舍重新开启。现在,五名叛逆的门生因被黉舍要求自我赎回而被关押起来。当这些女孩子团结起来试图操纵各自的超才能逃窜时,她们意想到,为了保存,她们必须同太古邪灵及它所奴役的黉舍做殊死奋斗。

  1. Video
  2. ID                                       : 1
  3. Format                                   : AVC
  4. Format/Info                              : Advanced Video Codec
  5. Format profile                           : [url=/cdn-cgi/l/email-protection][email protected][/url]
  6. Format settings                          : CABAC / 4 Ref Frames
  7. Format settings, CABAC                   : Yes
  8. Format settings, ReFrames                : 4 frames
  9. Codec ID                                 : V_MPEG4/ISO/AVC
  10. Duration                                 : 1 h 36 min
  11. Bit rate                                 : 10.3 Mb/s
  12. Width                                    : 1 920 pixels
  13. Height                                   : 1 080 pixels
  14. Display aspect ratio                     : 16:9
  15. Frame rate mode                          : Constant
  16. Frame rate                               : 23.976 FPS
  17. Color space                              : YUV
  18. Chroma subsampling                       : 4:2:0
  19. Bit depth                                : 8 bits
  20. Scan type                                : Progressive
  21. Bits/(Pixel*Frame)                       : 0.207
  22. Stream size                              : 6.76 GiB (85%)
  23. Writing library                          : x264 core 125 r2208 d9d2288
  24. Encoding settings                        : cabac=1 / ref=4 / deblock=1:0:0 / analyse=0x3:0x133 / me=umh / subme=7 / psy=1 / psy_rd=1.00:0.00 / mixed_ref=1 / me_range=16 / chroma_me=1 / trellis=1 / 8x8dct=1 / cqm=0 / deadzone=21,11 / fast_pskip=0 / chroma_qp_offset=-2 / threads=12 / lookahead_threads=2 / sliced_threads=0 / nr=0 / decimate=1 / interlaced=0 / bluray_compat=0 / constrained_intra=0 / bframes=3 / b_pyramid=2 / b_adapt=1 / b_bias=0 / direct=1 / weightb=1 / open_gop=0 / weightp=2 / keyint=250 / keyint_min=23 / scenecut=40 / intra_refresh=0 / rc_lookahead=40 / rc=2pass / mbtree=1 / bitrate=10272 / ratetol=1.0 / qcomp=0.60 / qpmin=0 / qpmax=69 / qpstep=4 / cplxblur=20.0 / qblur=0.5 / ip_ratio=1.40 / aq=1:1.00
  25. Language                                 : English
  26. Default                                  : Yes
  27. Forced                                   : No

  28. Audio
  29. ID                                       : 2
  30. Format                                   : DTS
  31. Format/Info                              : Digital Theater Systems
  32. Codec ID                                 : A_DTS
  33. Duration                                 : 1 h 36 min
  34. Bit rate mode                            : Constant
  35. Bit rate                                 : 1 509 kb/s
  36. Channel(s)                               : 6 channels
  37. Channel positions                        : Front: L C R, Side: L R, LFE
  38. Sampling rate                            : 48.0 kHz
  39. Frame rate                               : 93.750 FPS (512 SPF)
  40. Bit depth                                : 24 bits
  41. Compression mode                         : Lossy
  42. Stream size                              : 1.02 GiB (13%)
  43. Default                                  : Yes
  44. Forced                                   : No
复制代码

复制代码

叛逆女巫/5女战恶魔 5ive.Girls.2006.1080p.BluRay.x264-BRMP 7.94GB-2.png 叛逆女巫/5女战恶魔 5ive.Girls.2006.1080p.BluRay.x264-BRMP 7.94GB-3.png 叛逆女巫/5女战恶魔 5ive.Girls.2006.1080p.BluRay.x264-BRMP 7.94GB-4.png






回复

使用道具 举报

懒得打字嘛,点击右侧快捷回复 【右侧内容,后台自定义】
您需要登录后才可以回帖 登录 | 立即加入

本版积分规则

Archiver|小黑屋| 蓝光电影网 |网站地图

Copyright © 2021 Comsenz Inc. Powered by 蓝光电影网

蓝光电影网

本站内容由用户自主分享和转载自互联网,转载目的在于传递更多信息,并不代表本网赞同其观点和对其真实性负责。

如有侵权、违反国家法律政策行为,请联系我们,我们会第一时间及时清除和处理!

举报反馈邮箱:[email protected]

快速回复 返回顶部 返回列表