找回密码

蓝光电影网

查看: 1118|回复: 1

[动作] 走到尽头/黑仔型警 A.Hard.Day.2014.PROPER.1080p.BluRay.x264-REGRET 7.95GB

[复制链接]
蓝光币
623
发表于 2018-9-14 15:42:03 | 显示全部楼层 |阅读模式

走到绝顶/黑仔型警 A.Hard.Day.2014.PROPER.1080p.BluRay.x264-REGRET 7.95GB-1.jpg
◎译  名 走到绝顶/黑仔型警(港)/很是警探(台)/黑仔刑警/走到底
◎片  名 ??? ??
◎年  代 2014
◎产  地 韩国
◎类  别 行动/犯罪/惊悚
◎语  言 韩语
◎上映日期 2014-05-18(戛纳电影节)/2014-05-29(韩国)
◎豆瓣评分 7.8/10 from 41,818 users
◎豆瓣链接 https://movie.douban.com/subject/25766529/
◎片  长 111分钟
◎导  演 金成勋 Seong-hoon Kim
◎主  演 李善均 Seon-gyun Lee
      赵镇雄 Jin-ung Jo
      郑万植 Man-shik Jeong
      申东美 Dong-Mi Shin
      申正根 Jeong-geun Sin
      朴宝剑 Bo-Gum Park

◎简  介

  不苟谈笑的水源警局警官高建洙(李善均 饰)正处在人生的危机关头,他的母亲未几前刚刚归天,警局方面由于和同事涉嫌受贿而被检察官观察,回家奔丧的路上速度过快又失慎撞死了人。高左右奔突,疲于奔命,最初以瞒天过海的方式逃过一劫。好不轻易度过危机的高和同事受命清查一个通缉犯,成果却发现对朴直是自己撞到的人。落井下石的是,恰恰有人目击了车祸进程,而且匿名告发。以后未几,奥秘之人(赵镇雄 饰)打来电话,间接道出高建洙撞到通缉犯的隐情。
  对方具有和高警官一样体面的身份,而他频频纠缠这个惊弓之鸟背后又有怎样不成告人的目标?

◎获奖情况

  第35届韩国电影青龙奖  (2014)
  最好影片(提名)
  最好导演(提名) 金成勋
  最好男配角(提名) 李善均
  最好男配角 赵震雄
  最好剧本 金成勋
  最好摄影(提名)
  最好剪辑
  最好照明(提名)

  第9届亚洲电影大奖  (2015)
  最好男配角(提名) 赵震雄
  最好编剧(提名) 金成勋
  最好剪接(提名)

  第51届百想艺术大赏  (2015)
  电影类 最好影片(提名)
  电影类 最好导演 金成勋
  电影类 最好男配角 李善均 / 赵震雄
  电影类 最好编剧(提名)

  第51届韩国电影大钟奖  (2014)
  最好影片(提名)
  最好导演(提名) 金成勋
  最好男配角(提名) 赵震雄
  最好剧本(提名)
  最好摄影(提名)
  最好剪辑(提名)
  最好照明(提名)

  第1届豆瓣电影年度榜单  (2014)
  评分最高的韩国电影(提名)

  1. Video
  2. ID                                       : 1
  3. Format                                   : AVC
  4. Format/Info                              : Advanced Video Codec
  5. Format profile                           : [url=/cdn-cgi/l/email-protection][email protected][/url]
  6. Format settings                          : CABAC / 5 Ref Frames
  7. Format settings, CABAC                   : Yes
  8. Format settings, RefFrames               : 5 frames
  9. Codec ID                                 : V_MPEG4/ISO/AVC
  10. Duration                                 : 1 h 51 min
  11. Bit rate                                 : 8 730 kb/s
  12. Width                                    : 1 920 pixels
  13. Height                                   : 816 pixels
  14. Display aspect ratio                     : 2.35:1
  15. Frame rate mode                          : Constant
  16. Frame rate                               : 23.976 (24000/1001) FPS
  17. Color space                              : YUV
  18. Chroma subsampling                       : 4:2:0
  19. Bit depth                                : 8 bits
  20. Scan type                                : Progressive
  21. Bits/(Pixel*Frame)                       : 0.232
  22. Stream size                              : 6.77 GiB (85%)
  23. Writing library                          : x264 core 155 r2901 7d0ff22
  24. Encoding settings                        : cabac=1 / ref=5 / deblock=1:-3:-3 / analyse=0x3:0x133 / me=umh / subme=9 / psy=1 / psy_rd=1.00:0.00 / mixed_ref=1 / me_range=16 / chroma_me=1 / trellis=2 / 8x8dct=1 / cqm=0 / deadzone=21,11 / fast_pskip=0 / chroma_qp_offset=-2 / threads=24 / lookahead_threads=2 / sliced_threads=0 / nr=0 / decimate=1 / interlaced=0 / bluray_compat=0 / constrained_intra=0 / bframes=3 / b_pyramid=2 / b_adapt=1 / b_bias=0 / direct=3 / weightb=1 / open_gop=0 / weightp=2 / keyint=240 / keyint_min=24 / scenecut=40 / intra_refresh=0 / rc_lookahead=50 / rc=2pass / mbtree=1 / bitrate=8730 / ratetol=1.0 / qcomp=0.60 / qpmin=0 / qpmax=69 / qpstep=4 / cplxblur=20.0 / qblur=0.5 / ip_ratio=1.40 / aq=1:1.00
  25. Language                                 : English
  26. Default                                  : Yes
  27. Forced                                   : No

  28. Audio
  29. ID                                       : 2
  30. Format                                   : DTS
  31. Format/Info                              : Digital Theater Systems
  32. Mode                                     : 16
  33. Format settings, Endianness              : Big
  34. Codec ID                                 : A_DTS
  35. Duration                                 : 1 h 51 min
  36. Bit rate mode                            : Constant
  37. Bit rate                                 : 1 509 kb/s
  38. Channel(s)                               : 6 channels
  39. Channel positions                        : Front: L C R, Side: L R, LFE
  40. Sampling rate                            : 48.0 kHz
  41. Frame rate                               : 93.750 FPS (512 SPF)
  42. Bit depth                                : 24 bits
  43. Compression mode                         : Lossy
  44. Stream size                              : 1.17 GiB (15%)
  45. Language                                 : Korean
  46. Default                                  : Yes
  47. Forced                                   : No

  48. Text
  49. ID                                       : 3
  50. Format                                   : UTF-8
  51. Codec ID                                 : S_TEXT/UTF8
  52. Codec ID/Info                            : UTF-8 Plain Text
  53. Duration                                 : 1 h 46 min
  54. Bit rate                                 : 34 b/s
  55. Count of elements                        : 1031
  56. Stream size                              : 27.2 KiB (0%)
  57. Title                                    : English
  58. Language                                 : English
  59. Default                                  : Yes
  60. Forced                                   : Yes

  61. Menu
  62. 00:00:00.000                             : en:00:00:00.000
  63. 00:14:00.548                             : en:00:14:00.548
  64. 00:30:19.109                             : en:00:30:19.109
  65. 00:42:35.928                             : en:00:42:35.928
  66. 00:51:35.301                             : en:00:51:35.301
  67. 01:02:45.720                             : en:01:02:45.720
  68. 01:13:32.783                             : en:01:13:32.783
  69. 01:22:00.207                             : en:01:22:00.207
  70. 01:30:03.815                             : en:01:30:03.815
  71. 01:40:55.174                             : en:01:40:55.174
复制代码

复制代码

走到绝顶/黑仔型警 A.Hard.Day.2014.PROPER.1080p.BluRay.x264-REGRET 7.95GB-2.jpg




回复

使用道具 举报

蓝光币
775
发表于 2019-9-6 18:30:41 | 显示全部楼层
楼主发贴辛苦了,谢谢楼主分享!我觉得蓝光电影网是注册对了!
回复 支持 反对

使用道具 举报

懒得打字嘛,点击右侧快捷回复 【右侧内容,后台自定义】
您需要登录后才可以回帖 登录 | 立即加入

本版积分规则

Archiver|小黑屋| 蓝光电影网 |网站地图

Copyright © 2021 Comsenz Inc. Powered by 蓝光电影网

蓝光电影网

本站内容由用户自主分享和转载自互联网,转载目的在于传递更多信息,并不代表本网赞同其观点和对其真实性负责。

如有侵权、违反国家法律政策行为,请联系我们,我们会第一时间及时清除和处理!

举报反馈邮箱:[email protected]

快速回复 返回顶部 返回列表