找回密码

蓝光电影网

查看: 857|回复: 2

[剧情] 夺命回声 The.Echo.2008.1080p.BluRay.x264-LCHD 6.64GB

[复制链接]
蓝光币
623
发表于 2018-9-14 15:45:22 | 显示全部楼层 |阅读模式

夺命反响 The.Echo.2008.1080p.BluRay.x264-LCHD 6.64GB-1.jpg
◎译  名 夺命反响
◎片  名 The Echo
◎年  代 2008
◎产  地 美国
◎类  别 剧情/可骇/悬疑/惊悚
◎语  言 英语
◎上映日期 2008-05-25
◎豆瓣评分 6.0/10 from 1,781 users
◎豆瓣链接 https://movie.douban.com/subject/2268357/
◎片  长 South Korea: 90 分钟
◎导  演 Yam Laranas
◎主  演 阿梅丽娅·华纳 Amelia Warner
      杰西·布拉德福特 Jesse Bradford
      卡洛斯·里昂 Carlos Leon

◎简  介

  翻拍自同名菲律宾可骇片
  刚刚出狱巴比温特豪斯,搬进了已归天的母亲留下的509号老公寓里,他希望自己的生活能有一个新的起头。他的房间中总是听到各类希奇的声音。而这只要他能听到。没有人听到这些声音、没有人相信他的话,也没有人可以信赖。各类诡异的工作接连出现。究竟这里曩昔已经发生过什么?

  1. Video
  2. ID                                       : 1
  3. Format                                   : AVC
  4. Format/Info                              : Advanced Video Codec
  5. Format profile                           : [url=/cdn-cgi/l/email-protection][email protected][/url]
  6. Format settings                          : CABAC / 5 Ref Frames
  7. Format settings, CABAC                   : Yes
  8. Format settings, RefFrames               : 5 frames
  9. Codec ID                                 : V_MPEG4/ISO/AVC
  10. Duration                                 : 1 h 36 min
  11. Bit rate                                 : 8 265 kb/s
  12. Width                                    : 1 920 pixels
  13. Height                                   : 800 pixels
  14. Display aspect ratio                     : 2.40:1
  15. Frame rate mode                          : Constant
  16. Frame rate                               : 23.976 (24000/1001) FPS
  17. Color space                              : YUV
  18. Chroma subsampling                       : 4:2:0
  19. Bit depth                                : 8 bits
  20. Scan type                                : Progressive
  21. Bits/(Pixel*Frame)                       : 0.224
  22. Stream size                              : 5.42 GiB (83%)
  23. Writing library                          : x264 core 80 r1369 ec8e586
  24. Encoding settings                        : cabac=1 / ref=5 / deblock=1:-1:-1 / analyse=0x3:0x113 / me=umh / subme=7 / psy=1 / psy_rd=1.0:0.0 / mixed_ref=1 / me_range=16 / chroma_me=1 / trellis=2 / 8x8dct=1 / cqm=0 / deadzone=21,11 / fast_pskip=1 / chroma_qp_offset=-2 / threads=12 / sliced_threads=0 / nr=0 / decimate=1 / mbaff=0 / constrained_intra=0 / bframes=3 / b_pyramid=0 / b_adapt=2 / b_bias=0 / direct=3 / wpredb=1 / wpredp=2 / keyint=250 / keyint_min=25 / scenecut=40 / rc_lookahead=40 / rc=2pass / mbtree=1 / bitrate=8265 / ratetol=1.0 / qcomp=0.60 / qpmin=10 / qpmax=51 / qpstep=4 / cplxblur=20.0 / qblur=0.5 / vbv_maxrate=50000 / vbv_bufsize=50000 / ip_ratio=1.40 / aq=1:1.00
  25. Language                                 : English
  26. Default                                  : Yes
  27. Forced                                   : No

  28. Audio
  29. ID                                       : 2
  30. Format                                   : DTS
  31. Format/Info                              : Digital Theater Systems
  32. Mode                                     : 16
  33. Format settings, Endianness              : Big
  34. Codec ID                                 : A_DTS
  35. Duration                                 : 1 h 36 min
  36. Bit rate mode                            : Constant
  37. Bit rate                                 : 1 509 kb/s
  38. Channel(s)                               : 6 channels
  39. Channel positions                        : Front: L C R, Side: L R, LFE
  40. Sampling rate                            : 48.0 kHz
  41. Frame rate                               : 93.750 FPS (512 SPF)
  42. Bit depth                                : 16 bits
  43. Compression mode                         : Lossy
  44. Stream size                              : 1.01 GiB (15%)
  45. Language                                 : English
  46. Default                                  : Yes
  47. Forced                                   : No
复制代码

复制代码

夺命反响 The.Echo.2008.1080p.BluRay.x264-LCHD 6.64GB-2.jpg






回复

使用道具 举报

蓝光币
32
发表于 2020-9-3 01:12:30 | 显示全部楼层

楼主太厉害了!楼主,电影应该很好看我觉得蓝光电影网真是个好地方!
回复 支持 反对

使用道具 举报

懒得打字嘛,点击右侧快捷回复 【右侧内容,后台自定义】
您需要登录后才可以回帖 登录 | 立即加入

本版积分规则

Archiver|小黑屋| 蓝光电影网 |网站地图

Copyright © 2021 Comsenz Inc. Powered by 蓝光电影网

蓝光电影网

本站内容由用户自主分享和转载自互联网,转载目的在于传递更多信息,并不代表本网赞同其观点和对其真实性负责。

如有侵权、违反国家法律政策行为,请联系我们,我们会第一时间及时清除和处理!

举报反馈邮箱:[email protected]

快速回复 返回顶部 返回列表