找回密码

蓝光电影网

查看: 1164|回复: 2

[动作] 罗宾汉/侠盗·骄雄 Robin.Hood.2010.UNRATED.REMASTERED.1080p.BluRay.x264.DTS-X.7.1-SWTYBLZ 19.47GB

[复制链接]
蓝光币
623
发表于 2018-9-14 15:50:10 | 显示全部楼层 |阅读模式

罗宾汉/侠盗·骄雄 Robin.Hood.2010.UNRATED.REMASTERED.1080p.BluRay.x264.DTS-X.7.1-SWTYBLZ 19.47GB-1.jpg
◎译  名 罗宾汉/侠盗·骄雄(港)
◎片  名 Robin Hood
◎年  代 2010
◎产  地 美国/英国
◎类  别 行动/冒险/剧情
◎语  言 英语
◎上映日期 2010-05-12(英国)/2010-06-11(中国大陆)
◎豆瓣评分 6.7/10 from 21,401 users
◎豆瓣链接 https://movie.douban.com/subject/2062677/
◎片  长 140 分钟/131 分钟(戛纳电影节)/156 分钟(导演剪辑版)
◎导  演 雷德利·斯科特 Ridley Scott
◎主  演 罗素·克劳 Russell Crowe
      凯特·布兰切特 Cate Blanchett
      威廉·赫特 William Hurt
      马克·斯特朗 Mark Strong
      马克斯·冯·西多 Max von Sydow
      奥斯卡·伊撒克 Oscar Isaac
      马修·麦克费登 Matthew Macfadyen
      丹尼·赫斯顿 Danny Huston
      艾琳·阿特金斯 Eileen Atkins
      马克·阿蒂 Mark Addy
      蕾雅·赛杜 Léa Seydoux

◎简  介

  13世纪,大英帝国在狮心王理查一世(丹尼·赫斯顿 Danny Huston 饰)的率领下与来犯的法国军队展开酣战。力大无穷、勇猛善战的罗宾·朗斯特莱德(罗素·克劳 Russell Crowe 饰)是这群英国战士中的一员,作为射手的他曾随理查加入过十字军东征,在对法的战争中也表示英勇。可是狮心王遭受诡计刺杀,罗宾接管与国王一同遇刺的罗伯特?洛克斯利的遗言,摇身酿成罗伯特回到英国。在王宫骗吃骗喝事后,罗宾如约来到罗伯特的故乡诺丁汉,他不但获得罗伯特父亲的准予继续假扮其儿子,还意外得知了自己的身世之谜。与此同时,法国野心勃勃,觊觎着英国的国土,而英国国内又乱相丛生,危机四伏。
  在暗流涌动的大时代下,罗宾似乎了然了自己的保存使命,未几后他拿起长弓,投入深林,开启了耐久不衰的罗宾汉的传闻……

◎获奖情况

  第12届美国青少年挑选奖  (2010)
  最好行动冒险电影(提名)
  最好行动冒险电影男演员(提名) 罗素·克劳
  最好行动冒险电影女演员(提名) 凯特·布兰切特

  1. Video
  2. ID                                       : 1
  3. Format                                   : AVC
  4. Format/Info                              : Advanced Video Codec
  5. Format profile                           : [url=/cdn-cgi/l/email-protection][email protected][/url]
  6. Format settings                          : CABAC / 5 Ref Frames
  7. Format settings, CABAC                   : Yes
  8. Format settings, ReFrames                : 5 frames
  9. Codec ID                                 : V_MPEG4/ISO/AVC
  10. Duration                                 : 2 h 35 min
  11. Bit rate                                 : 10.4 Mb/s
  12. Width                                    : 1 920 pixels
  13. Height                                   : 800 pixels
  14. Display aspect ratio                     : 2.40:1
  15. Frame rate mode                          : Constant
  16. Frame rate                               : 23.976 (24000/1001) FPS
  17. Color space                              : YUV
  18. Chroma subsampling                       : 4:2:0
  19. Bit depth                                : 8 bits
  20. Scan type                                : Progressive
  21. Bits/(Pixel*Frame)                       : 0.283
  22. Stream size                              : 11.3 GiB (58%)
  23. Title                                    : Robin.Hood.2010.UNRATED.REMASTERED.1080p.BluRay.x264.DTS-X.7.1-SWTYBLZ
  24. Writing library                          : x264 core 155 r2901 7d0ff22
  25. Encoding settings                        : cabac=1 / ref=5 / deblock=1:-1:-1 / analyse=0x3:0x133 / me=umh / subme=10 / psy=1 / psy_rd=1.00:0.15 / mixed_ref=1 / me_range=48 / chroma_me=1 / trellis=2 / 8x8dct=1 / cqm=0 / deadzone=21,11 / fast_pskip=1 / chroma_qp_offset=-3 / threads=25 / lookahead_threads=4 / sliced_threads=0 / nr=0 / decimate=0 / interlaced=0 / bluray_compat=0 / constrained_intra=0 / bframes=8 / b_pyramid=2 / b_adapt=2 / b_bias=0 / direct=3 / weightb=1 / open_gop=0 / weightp=2 / keyint=250 / keyint_min=23 / scenecut=40 / intra_refresh=0 / rc_lookahead=60 / rc=crf / mbtree=1 / crf=21.0 / qcomp=0.60 / qpmin=0 / qpmax=69 / qpstep=4 / ip_ratio=1.40 / aq=1:1.00
  26. Language                                 : English
  27. Default                                  : Yes
  28. Forced                                   : No

  29. Audio
  30. ID                                       : 2
  31. Format                                   : DTS
  32. Format/Info                              : Digital Theater Systems
  33. Format profile                           : X / MA / Core
  34. Codec ID                                 : A_DTS
  35. Duration                                 : 2 h 35 min
  36. Bit rate mode                            : Variable / Variable / Constant
  37. Bit rate                                 : 7 421 kb/s / 7 421 kb/s / 1 509 kb/s
  38. Channel(s)                               : Object Based / 8 channels / 6 channels
  39. Channel positions                        : Object Based / Front: L C R, Side: L R, Back: L R, LFE / Front: L C R, Side: L R, LFE
  40. Sampling rate                            :  / 48.0 kHz / 48.0 kHz
  41. Frame rate                               : 93.750 FPS (512 SPF)
  42. Bit depth                                :  / 24 bits / 24 bits
  43. Compression mode                         :  / Lossless / Lossy
  44. Stream size                              : 8.08 GiB (41%)
  45. Title                                    : Robin.Hood.2010.UNRATED.REMASTERED.1080p.BluRay.x264.DTS-X.7.1-SWTYBLZ
  46. Language                                 : English
  47. Default                                  : Yes
  48. Forced                                   : No

  49. Text #1
  50. ID                                       : 3
  51. Format                                   : UTF-8
  52. Codec ID                                 : S_TEXT/UTF8
  53. Codec ID/Info                            : UTF-8 Plain Text
  54. Duration                                 : 2 h 27 min
  55. Bit rate                                 : 39 b/s
  56. Count of elements                        : 1414
  57. Stream size                              : 42.2 KiB (0%)
  58. Title                                    : English-SRT
  59. Language                                 : English
  60. Default                                  : Yes
  61. Forced                                   : No

  62. Text #2
  63. ID                                       : 4
  64. Format                                   : PGS
  65. Muxing mode                              : zlib
  66. Codec ID                                 : S_HDMV/PGS
  67. Codec ID/Info                            : Picture based subtitle format used on BDs/HD-DVDs
  68. Duration                                 : 2 h 34 min
  69. Bit rate                                 : 27.8 kb/s
  70. Count of elements                        : 3209
  71. Stream size                              : 30.6 MiB (0%)
  72. Title                                    : English-PGS
  73. Language                                 : English
  74. Default                                  : No
  75. Forced                                   : No

  76. Text #3
  77. ID                                       : 5
  78. Format                                   : PGS
  79. Muxing mode                              : zlib
  80. Codec ID                                 : S_HDMV/PGS
  81. Codec ID/Info                            : Picture based subtitle format used on BDs/HD-DVDs
  82. Duration                                 : 2 h 34 min
  83. Bit rate                                 : 26.0 kb/s
  84. Count of elements                        : 2798
  85. Stream size                              : 28.8 MiB (0%)
  86. Title                                    : French-PGS
  87. Language                                 : French
  88. Default                                  : No
  89. Forced                                   : No

  90. Text #4
  91. ID                                       : 6
  92. Format                                   : PGS
  93. Muxing mode                              : zlib
  94. Codec ID                                 : S_HDMV/PGS
  95. Codec ID/Info                            : Picture based subtitle format used on BDs/HD-DVDs
  96. Duration                                 : 2 h 34 min
  97. Bit rate                                 : 25.0 kb/s
  98. Count of elements                        : 2931
  99. Stream size                              : 27.7 MiB (0%)
  100. Title                                    : Spanish-PGS
  101. Language                                 : Spanish
  102. Default                                  : No
  103. Forced                                   : No

  104. Text #5
  105. ID                                       : 7
  106. Format                                   : PGS
  107. Muxing mode                              : zlib
  108. Codec ID                                 : S_HDMV/PGS
  109. Codec ID/Info                            : Picture based subtitle format used on BDs/HD-DVDs
  110. Duration                                 : 2 h 34 min
  111. Bit rate                                 : 19.5 kb/s
  112. Count of elements                        : 2909
  113. Stream size                              : 21.6 MiB (0%)
  114. Title                                    : Japanese-PGS
  115. Language                                 : Japanese
  116. Default                                  : No
  117. Forced                                   : No

  118. Text #6
  119. ID                                       : 8
  120. Format                                   : PGS
  121. Muxing mode                              : zlib
  122. Codec ID                                 : S_HDMV/PGS
  123. Codec ID/Info                            : Picture based subtitle format used on BDs/HD-DVDs
  124. Duration                                 : 2 h 34 min
  125. Bit rate                                 : 25.9 kb/s
  126. Count of elements                        : 2944
  127. Stream size                              : 28.7 MiB (0%)
  128. Title                                    : Portuguese-PGS
  129. Language                                 : Portuguese
  130. Default                                  : No
  131. Forced                                   : No

  132. Menu
  133. 00:00:00.000                             : :Chapter 1
  134. 00:12:05.975                             : :Chapter 2
  135. 00:18:27.439                             : :Chapter 3
  136. 00:25:11.551                             : :Chapter 4
  137. 00:33:31.425                             : :Chapter 5
  138. 00:38:36.981                             : :Chapter 6
  139. 00:48:42.586                             : :Chapter 7
  140. 00:57:11.886                             : :Chapter 8
  141. 01:04:14.308                             : :Chapter 9
  142. 01:10:41.612                             : :Chapter 10
  143. 01:23:24.624                             : :Chapter 11
  144. 01:32:17.114                             : :Chapter 12
  145. 01:40:30.148                             : :Chapter 13
  146. 01:49:15.882                             : :Chapter 14
  147. 01:56:06.417                             : :Chapter 15
  148. 02:02:29.091                             : :Chapter 16
  149. 02:09:20.669                             : :Chapter 17
  150. 02:18:21.417                             : :Chapter 18
  151. 02:22:48.684                             : :Chapter 19
  152. 02:27:08.611                             : :Chapter 20
复制代码

复制代码

罗宾汉/侠盗·骄雄 Robin.Hood.2010.UNRATED.REMASTERED.1080p.BluRay.x264.DTS-X.7.1-SWTYBLZ 19.47GB-2.png 罗宾汉/侠盗·骄雄 Robin.Hood.2010.UNRATED.REMASTERED.1080p.BluRay.x264.DTS-X.7.1-SWTYBLZ 19.47GB-3.png 罗宾汉/侠盗·骄雄 Robin.Hood.2010.UNRATED.REMASTERED.1080p.BluRay.x264.DTS-X.7.1-SWTYBLZ 19.47GB-4.png






回复

使用道具 举报

蓝光币
821
发表于 2018-9-15 16:32:25 | 显示全部楼层
感谢楼主分享精彩电影!
回复 支持 反对

使用道具 举报

蓝光币
671
发表于 2020-3-27 10:03:57 | 显示全部楼层
谢谢楼主无私分享。
回复 支持 反对

使用道具 举报

懒得打字嘛,点击右侧快捷回复 【右侧内容,后台自定义】
您需要登录后才可以回帖 登录 | 立即加入

本版积分规则

Archiver|小黑屋| 蓝光电影网 |网站地图

Copyright © 2021 Comsenz Inc. Powered by 蓝光电影网

蓝光电影网

本站内容由用户自主分享和转载自互联网,转载目的在于传递更多信息,并不代表本网赞同其观点和对其真实性负责。

如有侵权、违反国家法律政策行为,请联系我们,我们会第一时间及时清除和处理!

举报反馈邮箱:[email protected]

快速回复 返回顶部 返回列表