找回密码

蓝光电影网

查看: 1886|回复: 1

[动作] 罗宾汉/侠盗·骄雄 Robin.Hood.2010.UNRATED.REMASTERED.1080p.BluRay.x264.DTS-SWTYBLZ 12.99GB

[复制链接]
蓝光币
623
发表于 2018-9-14 15:51:22 | 显示全部楼层 |阅读模式

罗宾汉/侠盗·骄雄 Robin.Hood.2010.UNRATED.REMASTERED.1080p.BluRay.x264.DTS-SWTYBLZ 12.99GB-1.jpg
◎译  名 罗宾汉/侠盗·骄雄(港)
◎片  名 Robin Hood
◎年  代 2010
◎产  地 美国/英国
◎类  别 行动/冒险/剧情
◎语  言 英语
◎上映日期 2010-05-12(英国)/2010-06-11(中国大陆)
◎豆瓣评分 6.7/10 from 21,401 users
◎豆瓣链接 https://movie.douban.com/subject/2062677/
◎片  长 140 分钟/131 分钟(戛纳电影节)/156 分钟(导演剪辑版)
◎导  演 雷德利·斯科特 Ridley Scott
◎主  演 罗素·克劳 Russell Crowe
      凯特·布兰切特 Cate Blanchett
      威廉·赫特 William Hurt
      马克·斯特朗 Mark Strong
      马克斯·冯·西多 Max von Sydow
      奥斯卡·伊撒克 Oscar Isaac
      马修·麦克费登 Matthew Macfadyen
      丹尼·赫斯顿 Danny Huston
      艾琳·阿特金斯 Eileen Atkins
      马克·阿蒂 Mark Addy
      蕾雅·赛杜 Léa Seydoux

◎简  介

  13世纪,大英帝国在狮心王理查一世(丹尼·赫斯顿 Danny Huston 饰)的率领下与来犯的法国军队展开酣战。力大无穷、勇猛善战的罗宾·朗斯特莱德(罗素·克劳 Russell Crowe 饰)是这群英国战士中的一员,作为射手的他曾随理查加入过十字军东征,在对法的战争中也表示英勇。可是狮心王遭受诡计刺杀,罗宾接管与国王一同遇刺的罗伯特?洛克斯利的遗言,摇身酿成罗伯特回到英国。在王宫骗吃骗喝事后,罗宾如约来到罗伯特的故乡诺丁汉,他不但获得罗伯特父亲的准予继续假扮其儿子,还意外得知了自己的身世之谜。与此同时,法国野心勃勃,觊觎着英国的国土,而英国国内又乱相丛生,危机四伏。
  在暗流涌动的大时代下,罗宾似乎了然了自己的保存使命,未几后他拿起长弓,投入深林,开启了耐久不衰的罗宾汉的传闻……

◎获奖情况

  第12届美国青少年挑选奖  (2010)
  最好行动冒险电影(提名)
  最好行动冒险电影男演员(提名) 罗素·克劳
  最好行动冒险电影女演员(提名) 凯特·布兰切特

  1. Video
  2. ID                                       : 1
  3. Format                                   : AVC
  4. Format/Info                              : Advanced Video Codec
  5. Format profile                           : [url=/cdn-cgi/l/email-protection][email protected][/url]
  6. Format settings                          : CABAC / 5 Ref Frames
  7. Format settings, CABAC                   : Yes
  8. Format settings, ReFrames                : 5 frames
  9. Codec ID                                 : V_MPEG4/ISO/AVC
  10. Duration                                 : 2 h 35 min
  11. Bit rate                                 : 10.4 Mb/s
  12. Width                                    : 1 920 pixels
  13. Height                                   : 800 pixels
  14. Display aspect ratio                     : 2.40:1
  15. Frame rate mode                          : Constant
  16. Frame rate                               : 23.976 (24000/1001) FPS
  17. Color space                              : YUV
  18. Chroma subsampling                       : 4:2:0
  19. Bit depth                                : 8 bits
  20. Scan type                                : Progressive
  21. Bits/(Pixel*Frame)                       : 0.283
  22. Stream size                              : 11.3 GiB (87%)
  23. Title                                    : Robin.Hood.2010.UNRATED.REMASTERED.1080p.BluRay.x264.DTS-SWTYBLZ
  24. Writing library                          : x264 core 155 r2901 7d0ff22
  25. Encoding settings                        : cabac=1 / ref=5 / deblock=1:-1:-1 / analyse=0x3:0x133 / me=umh / subme=10 / psy=1 / psy_rd=1.00:0.15 / mixed_ref=1 / me_range=48 / chroma_me=1 / trellis=2 / 8x8dct=1 / cqm=0 / deadzone=21,11 / fast_pskip=1 / chroma_qp_offset=-3 / threads=25 / lookahead_threads=4 / sliced_threads=0 / nr=0 / decimate=0 / interlaced=0 / bluray_compat=0 / constrained_intra=0 / bframes=8 / b_pyramid=2 / b_adapt=2 / b_bias=0 / direct=3 / weightb=1 / open_gop=0 / weightp=2 / keyint=250 / keyint_min=23 / scenecut=40 / intra_refresh=0 / rc_lookahead=60 / rc=crf / mbtree=1 / crf=21.0 / qcomp=0.60 / qpmin=0 / qpmax=69 / qpstep=4 / ip_ratio=1.40 / aq=1:1.00
  26. Language                                 : English
  27. Default                                  : Yes
  28. Forced                                   : No

  29. Audio
  30. ID                                       : 2
  31. Format                                   : DTS
  32. Format/Info                              : Digital Theater Systems
  33. Codec ID                                 : A_DTS
  34. Duration                                 : 2 h 35 min
  35. Bit rate mode                            : Constant
  36. Bit rate                                 : 1 509 kb/s
  37. Channel(s)                               : 6 channels
  38. Channel positions                        : Front: L C R, Side: L R, LFE
  39. Sampling rate                            : 48.0 kHz
  40. Frame rate                               : 93.750 FPS (512 SPF)
  41. Bit depth                                : 24 bits
  42. Compression mode                         : Lossy
  43. Stream size                              : 1.64 GiB (13%)
  44. Title                                    : Robin.Hood.2010.UNRATED.REMASTERED.1080p.BluRay.x264.DTS-SWTYBLZ
  45. Language                                 : English
  46. Default                                  : Yes
  47. Forced                                   : No

  48. Text
  49. ID                                       : 3
  50. Format                                   : UTF-8
  51. Codec ID                                 : S_TEXT/UTF8
  52. Codec ID/Info                            : UTF-8 Plain Text
  53. Duration                                 : 2 h 27 min
  54. Bit rate                                 : 39 b/s
  55. Count of elements                        : 1414
  56. Stream size                              : 42.2 KiB (0%)
  57. Language                                 : English
  58. Default                                  : Yes
  59. Forced                                   : No

  60. Menu
  61. 00:00:00.000                             : :Chapter 1
  62. 00:12:05.975                             : :Chapter 2
  63. 00:18:27.439                             : :Chapter 3
  64. 00:25:11.551                             : :Chapter 4
  65. 00:33:31.425                             : :Chapter 5
  66. 00:38:36.981                             : :Chapter 6
  67. 00:48:42.586                             : :Chapter 7
  68. 00:57:11.886                             : :Chapter 8
  69. 01:04:14.308                             : :Chapter 9
  70. 01:10:41.612                             : :Chapter 10
  71. 01:23:24.624                             : :Chapter 11
  72. 01:32:17.114                             : :Chapter 12
  73. 01:40:30.148                             : :Chapter 13
  74. 01:49:15.882                             : :Chapter 14
  75. 01:56:06.417                             : :Chapter 15
  76. 02:02:29.091                             : :Chapter 16
  77. 02:09:20.669                             : :Chapter 17
  78. 02:18:21.417                             : :Chapter 18
  79. 02:22:48.684                             : :Chapter 19
  80. 02:27:08.611                             : :Chapter 20
复制代码

复制代码

罗宾汉/侠盗·骄雄 Robin.Hood.2010.UNRATED.REMASTERED.1080p.BluRay.x264.DTS-SWTYBLZ 12.99GB-2.png 罗宾汉/侠盗·骄雄 Robin.Hood.2010.UNRATED.REMASTERED.1080p.BluRay.x264.DTS-SWTYBLZ 12.99GB-3.png 罗宾汉/侠盗·骄雄 Robin.Hood.2010.UNRATED.REMASTERED.1080p.BluRay.x264.DTS-SWTYBLZ 12.99GB-4.png






回复

使用道具 举报

蓝光币
299
发表于 2018-9-14 23:30:22 | 显示全部楼层
谢谢提供。好久没看这个了
回复 支持 反对

使用道具 举报

懒得打字嘛,点击右侧快捷回复 【右侧内容,后台自定义】
您需要登录后才可以回帖 登录 | 立即加入

本版积分规则

Archiver|小黑屋| 蓝光电影网 |网站地图

Copyright © 2021 Comsenz Inc. Powered by 蓝光电影网

蓝光电影网

本站内容由用户自主分享和转载自互联网,转载目的在于传递更多信息,并不代表本网赞同其观点和对其真实性负责。

如有侵权、违反国家法律政策行为,请联系我们,我们会第一时间及时清除和处理!

举报反馈邮箱:[email protected]

快速回复 返回顶部 返回列表