找回密码

蓝光电影网

查看: 1141|回复: 2

[动作] 黑夜追击 The.Night.of.the.Hunted.1980.1080p.BluRay.x264-GHOULS 6.56GB

[复制链接]
蓝光币
623
发表于 2018-9-14 15:52:07 | 显示全部楼层 |阅读模式

黑夜追击 The.Night.of.the.Hunted.1980.1080p.BluRay.x264-GHOULS 6.56GB-1.jpg
◎译  名 黑夜追击
◎片  名 La nuit des traquées
◎年  代 1980
◎产  地 法国
◎类  别 犯罪/剧情
◎语  言 法语
◎上映日期 1980-08-20
◎豆瓣评分 5.9/10 from 45 users
◎豆瓣链接 https://movie.douban.com/subject/1299387/
◎导  演 让·洛林 Jean Rollin
◎主  演 Brigitte Lahaie
      Vincent Gardère
      Dominique Journet

◎简  介

  On a cold dark night a mysterious blonde girl is seen running around in the woods. It's Elisabeth (Brigitte Lahaie), who has escaped from a high-rise prison, where people are kept who have been contaminated by an environmental accident. Their thoughts, memories and emotions are slowly eaten away by disease, turning them into sad, helpless creatures. A young man (Vincent Carder) has fallen in love with Elisabeth and tries to help her escape. But the clinic's henchmen are ruthless.

  1. Video
  2. ID                                       : 1
  3. Format                                   : AVC
  4. Format/Info                              : Advanced Video Codec
  5. Format profile                           : [url=/cdn-cgi/l/email-protection][email protected][/url]
  6. Format settings                          : CABAC / 4 Ref Frames
  7. Format settings, CABAC                   : Yes
  8. Format settings, RefFrames               : 4 frames
  9. Codec ID                                 : V_MPEG4/ISO/AVC
  10. Duration                                 : 1 h 31 min
  11. Bit rate                                 : 9 627 kb/s
  12. Width                                    : 1 808 pixels
  13. Height                                   : 1 080 pixels
  14. Display aspect ratio                     : 5:3
  15. Frame rate mode                          : Constant
  16. Frame rate                               : 23.976 (24000/1001) FPS
  17. Color space                              : YUV
  18. Chroma subsampling                       : 4:2:0
  19. Bit depth                                : 8 bits
  20. Scan type                                : Progressive
  21. Bits/(Pixel*Frame)                       : 0.206
  22. Stream size                              : 6.15 GiB (94%)
  23. Writing library                          : x264 core 157 r2932 303c484
  24. Encoding settings                        : cabac=1 / ref=4 / deblock=1:-3:-3 / analyse=0x3:0x133 / me=umh / subme=8 / psy=1 / psy_rd=1.00:0.00 / mixed_ref=1 / me_range=16 / chroma_me=1 / trellis=1 / 8x8dct=1 / cqm=0 / deadzone=21,11 / fast_pskip=0 / chroma_qp_offset=-2 / threads=24 / lookahead_threads=4 / sliced_threads=0 / nr=0 / decimate=1 / interlaced=0 / bluray_compat=0 / constrained_intra=0 / bframes=3 / b_pyramid=2 / b_adapt=1 / b_bias=0 / direct=3 / weightb=1 / open_gop=0 / weightp=2 / keyint=250 / keyint_min=23 / scenecut=40 / intra_refresh=0 / rc_lookahead=50 / rc=2pass / mbtree=1 / bitrate=9627 / ratetol=1.0 / qcomp=0.60 / qpmin=0 / qpmax=69 / qpstep=4 / cplxblur=20.0 / qblur=0.5 / vbv_maxrate=62500 / vbv_bufsize=78125 / nal_hrd=none / filler=0 / ip_ratio=1.40 / aq=1:1.00
  25. Default                                  : Yes
  26. Forced                                   : No

  27. Audio
  28. ID                                       : 2
  29. Format                                   : AC-3
  30. Format/Info                              : Audio Coding 3
  31. Format settings, Endianness              : Big
  32. Codec ID                                 : A_AC3
  33. Duration                                 : 1 h 31 min
  34. Bit rate mode                            : Constant
  35. Bit rate                                 : 640 kb/s
  36. Channel(s)                               : 2 channels
  37. Channel positions                        : Front: L R
  38. Sampling rate                            : 48.0 kHz
  39. Frame rate                               : 31.250 FPS (1536 SPF)
  40. Bit depth                                : 16 bits
  41. Compression mode                         : Lossy
  42. Stream size                              : 418 MiB (6%)
  43. Language                                 : French
  44. Service kind                             : Complete Main
  45. Default                                  : Yes
  46. Forced                                   : No

  47. Text
  48. ID                                       : 3
  49. Format                                   : UTF-8
  50. Codec ID                                 : S_TEXT/UTF8
  51. Codec ID/Info                            : UTF-8 Plain Text
  52. Duration                                 : 1 h 28 min
  53. Bit rate                                 : 25 b/s
  54. Count of elements                        : 554
  55. Stream size                              : 16.4 KiB (0%)
  56. Language                                 : English
  57. Default                                  : Yes
  58. Forced                                   : No

  59. Menu
  60. 00:00:00.000                             : en:00:00:00.000
  61. 00:12:11.147                             : en:00:12:11.147
  62. 00:22:01.862                             : en:00:22:01.862
  63. 00:32:38.165                             : en:00:32:38.165
  64. 00:41:14.555                             : en:00:41:14.555
  65. 00:52:19.094                             : en:00:52:19.094
  66. 01:03:16.001                             : en:01:03:16.001
  67. 01:08:16.843                             : en:01:08:16.843
  68. 01:24:52.045                             : en:01:24:52.045
复制代码

复制代码

黑夜追击 The.Night.of.the.Hunted.1980.1080p.BluRay.x264-GHOULS 6.56GB-2.jpg






回复

使用道具 举报

蓝光币
144
发表于 2020-10-14 21:04:21 | 显示全部楼层
谢谢楼主分享
回复 支持 反对

使用道具 举报

懒得打字嘛,点击右侧快捷回复 【右侧内容,后台自定义】
您需要登录后才可以回帖 登录 | 立即加入

本版积分规则

Archiver|小黑屋| 蓝光电影网 |网站地图

Copyright © 2021 Comsenz Inc. Powered by 蓝光电影网

蓝光电影网

本站内容由用户自主分享和转载自互联网,转载目的在于传递更多信息,并不代表本网赞同其观点和对其真实性负责。

如有侵权、违反国家法律政策行为,请联系我们,我们会第一时间及时清除和处理!

举报反馈邮箱:[email protected]

快速回复 返回顶部 返回列表