找回密码

蓝光电影网

查看: 4917|回复: 4

[剧情] 裸者与死者/血海大进攻 The.Naked.and.the.Dead.1958.1080p.BluRay.x264-NODLABS 13.13GB

[复制链接]
蓝光币
623
发表于 2018-9-14 15:52:30 | 显示全部楼层 |阅读模式

裸者与死者/血海猛打击 The.Naked.and.the.Dead.1958.1080p.BluRay.x264-NODLABS 13.13GB-1.jpg
◎译  名 裸者与死者/血海猛打击/灭亡猛打击
◎片  名 The Naked and the Dead
◎年  代 1958
◎产  地 美国
◎类  别 剧情/战争
◎语  言 英语
◎上映日期 1958-08-06
◎豆瓣评分 /10 from 0 users
◎豆瓣链接 https://movie.douban.com/subject/1303182/
◎片  长 131 分钟
◎导  演 拉乌尔·沃尔什 Raoul Walsh
◎主  演 奥尔多·雷 Aldo Ray
      克里夫·罗伯逊 Cliff Robertson
      雷蒙德·马西 Raymond Massey

◎简  介

  影片描写了第二次天下大战中的承平洋地域,一队美国兵士在一位退役军官的率领下,放弃美食、美男及舒适的生活,与日军展开苦战

  1. Video
  2. ID                                       : 1
  3. Format                                   : AVC
  4. Format/Info                              : Advanced Video Codec
  5. Format profile                           : [url=/cdn-cgi/l/email-protection][email protected][/url]
  6. Format settings                          : CABAC / 5 Ref Frames
  7. Format settings, CABAC                   : Yes
  8. Format settings, RefFrames               : 5 frames
  9. Codec ID                                 : V_MPEG4/ISO/AVC
  10. Duration                                 : 2 h 10 min
  11. Bit rate                                 : 12.8 Mb/s
  12. Width                                    : 1 920 pixels
  13. Height                                   : 800 pixels
  14. Display aspect ratio                     : 2.40:1
  15. Frame rate mode                          : Constant
  16. Frame rate                               : 23.976 (24000/1001) FPS
  17. Color space                              : YUV
  18. Chroma subsampling                       : 4:2:0
  19. Bit depth                                : 8 bits
  20. Scan type                                : Progressive
  21. Bits/(Pixel*Frame)                       : 0.348
  22. Stream size                              : 11.5 GiB (87%)
  23. Writing library                          : x264 core 157 r2932 303c484
  24. Encoding settings                        : cabac=1 / ref=5 / deblock=1:-3:-3 / analyse=0x3:0x113 / me=umh / subme=8 / psy=1 / psy_rd=1.10:0.00 / mixed_ref=1 / me_range=32 / chroma_me=1 / trellis=2 / 8x8dct=1 / cqm=0 / deadzone=21,11 / fast_pskip=1 / chroma_qp_offset=-2 / threads=25 / lookahead_threads=4 / sliced_threads=0 / nr=0 / decimate=1 / interlaced=0 / bluray_compat=0 / constrained_intra=0 / bframes=3 / b_pyramid=2 / b_adapt=2 / b_bias=0 / direct=3 / weightb=1 / open_gop=0 / weightp=2 / keyint=240 / keyint_min=24 / scenecut=40 / intra_refresh=0 / rc_lookahead=50 / rc=2pass / mbtree=1 / bitrate=12833 / ratetol=1.0 / qcomp=0.60 / qpmin=0 / qpmax=69 / qpstep=4 / cplxblur=20.0 / qblur=0.5 / ip_ratio=1.40 / aq=3:0.75
  25. Default                                  : Yes
  26. Forced                                   : No
  27. Statistics Tags Issue                    : no_variable_data 1970-01-01 00:00:00 / no_variable_data 2010-02-22 21:41:29
  28. FromStats_BitRate                        : 12832681
  29. FromStats_Duration                       : 02:10:56.974000000
  30. FromStats_FrameCount                     : 188379
  31. FromStats_StreamSize                     : 12603255467

  32. Audio
  33. ID                                       : 2
  34. Format                                   : DTS
  35. Format/Info                              : Digital Theater Systems
  36. Mode                                     : 16
  37. Format settings, Endianness              : Big
  38. Codec ID                                 : A_DTS
  39. Duration                                 : 2 h 10 min
  40. Bit rate mode                            : Constant
  41. Bit rate                                 : 1 509 kb/s
  42. Channel(s)                               : 2 channels
  43. Channel positions                        : Front: L R
  44. Sampling rate                            : 48.0 kHz
  45. Frame rate                               : 93.750 FPS (512 SPF)
  46. Bit depth                                : 24 bits
  47. Compression mode                         : Lossy
  48. Stream size                              : 1.38 GiB (11%)
  49. Language                                 : English
  50. Default                                  : Yes
  51. Forced                                   : No
  52. Statistics Tags Issue                    : no_variable_data 1970-01-01 00:00:00 / no_variable_data 2010-02-22 21:41:29
  53. FromStats_BitRate                        : 1508999
  54. FromStats_Duration                       : 02:10:57.003000000
  55. FromStats_FrameCount                     : 736594
  56. FromStats_StreamSize                     : 1482027128

  57. Text #1
  58. ID                                       : 3
  59. Format                                   : UTF-8
  60. Codec ID                                 : S_TEXT/UTF8
  61. Codec ID/Info                            : UTF-8 Plain Text
  62. Language                                 : English
  63. Default                                  : No
  64. Forced                                   : No
  65. Statistics Tags Issue                    : no_variable_data 1970-01-01 00:00:00 / no_variable_data 2010-02-22 21:41:29
  66. FromStats_BitRate                        : 63
  67. FromStats_Duration                       : 02:08:05.762000000
  68. FromStats_FrameCount                     : 1780
  69. FromStats_StreamSize                     : 61301

  70. Text #2
  71. ID                                       : 4
  72. Format                                   : UTF-8
  73. Codec ID                                 : S_TEXT/UTF8
  74. Codec ID/Info                            : UTF-8 Plain Text
  75. Title                                    : SDH
  76. Language                                 : English
  77. Default                                  : No
  78. Forced                                   : No
  79. Statistics Tags Issue                    : no_variable_data 1970-01-01 00:00:00 / no_variable_data 2010-02-22 21:41:29
  80. FromStats_BitRate                        : 65
  81. FromStats_Duration                       : 02:10:38.831000000
  82. FromStats_FrameCount                     : 1980
  83. FromStats_StreamSize                     : 64592

  84. Menu
  85. 00:00:00.000                             : en:00:00:00.000
  86. 00:01:27.379                             : en:00:01:27.379
  87. 00:04:43.492                             : en:00:04:43.492
  88. 00:05:34.251                             : en:00:05:34.251
  89. 00:10:22.080                             : en:00:10:22.080
  90. 00:15:07.615                             : en:00:15:07.615
  91. 00:20:12.086                             : en:00:20:12.086
  92. 00:25:34.241                             : en:00:25:34.241
  93. 00:30:01.258                             : en:00:30:01.258
  94. 00:35:23.288                             : en:00:35:23.288
  95. 00:40:47.737                             : en:00:40:47.737
  96. 00:45:36.150                             : en:00:45:36.150
  97. 00:47:18.669                             : en:00:47:18.669
  98. 00:53:08.227                             : en:00:53:08.227
  99. 01:01:46.828                             : en:01:01:46.828
  100. 01:07:49.023                             : en:01:07:49.023
  101. 01:13:43.002                             : en:01:13:43.002
  102. 01:18:14.023                             : en:01:18:14.023
  103. 01:23:50.859                             : en:01:23:50.859
  104. 01:27:53.852                             : en:01:27:53.852
  105. 01:31:06.211                             : en:01:31:06.211
  106. 01:34:51.060                             : en:01:34:51.060
  107. 01:39:05.898                             : en:01:39:05.898
  108. 01:45:39.959                             : en:01:45:39.959
  109. 01:50:06.433                             : en:01:50:06.433
  110. 01:55:28.380                             : en:01:55:28.380
  111. 02:01:08.845                             : en:02:01:08.845
  112. 02:02:54.158                             : en:02:02:54.158
  113. 02:07:19.215                             : en:02:07:19.215
  114. 02:10:20.646                             : en:02:10:20.646
复制代码

复制代码

裸者与死者/血海猛打击 The.Naked.and.the.Dead.1958.1080p.BluRay.x264-NODLABS 13.13GB-2.jpg






回复

使用道具 举报

懒得打字嘛,点击右侧快捷回复 【右侧内容,后台自定义】
您需要登录后才可以回帖 登录 | 立即加入

本版积分规则

Archiver|小黑屋| 蓝光电影网 |网站地图

Copyright © 2021 Comsenz Inc. Powered by 蓝光电影网

蓝光电影网

本站内容由用户自主分享和转载自互联网,转载目的在于传递更多信息,并不代表本网赞同其观点和对其真实性负责。

如有侵权、违反国家法律政策行为,请联系我们,我们会第一时间及时清除和处理!

举报反馈邮箱:[email protected]

快速回复 返回顶部 返回列表