找回密码

蓝光电影网

查看: 1726|回复: 1

[剧情] 冰上奇迹/挑战奇迹 Miracle.2004.1080p.BluRay.x264.DTS-FGT 16.6GB

[复制链接]
蓝光币
623
发表于 2018-9-15 10:48:53 | 显示全部楼层 |阅读模式

冰上奇迹/应战奇迹 Miracle.2004.1080p.BluRay.x264.DTS-FGT 16.6GB-1.jpg
导演: 加文·欧康诺
编剧: 埃里克·古根海姆
主演: Kurt Russell / Patricia Clarkson
典范: 剧情 / 家庭 / 历史 / 活动
制片国家/地域: 美国
措辞: 英语
上映日期: 2004-02-06
片长: 135 分钟
别名: 应战奇迹
冰上奇迹的剧情简介······
  1979年,堕入越战和冷战的美国,没有在科技大长大时代获得更生,反而滑向了信心危机的困局,“美国精神”发生了晃动。赫伯·布鲁克斯(库尔特·拉塞尔 Kurt Russell 饰)是率领明尼苏达大学冰球队夺得三连冠的功勋教练,在冬季奥运开赛的半年前,赫伯受命组建并练习新一届美国冰球队。那时苏联冰球队在国际上占据绝对统治职位,六十年月以来延续夺得奥运金牌。在赫伯组队伊始,他就把苏联作为终极对手看待。赫伯从各大学召来优异冰球选手组成了一支26人的初选队,在严酷的练习中,这些非职业队员们组成了一个真正有战争力的团体。奥运开幕前三天,美苏两国冰球队停止了一场热身性质的角逐,美国队虽然落败,但赫伯和他的队员们都清楚,实在的较劲在奥运会上……
  本片依照1980年盐湖城冬奥会上的实在故事改编。
Video
ID             : 1
Format           : AVC
Format/Info          : Advanced Video Codec
Format profile         : [email protected]
Format settings, CABAC       : Yes
Format settings, ReFrames      : 5 frames
Codec ID           : V_MPEG4/ISO/AVC
Duration           : 2h 15mn
Bit rate           : 16.0 Mbps
Width            : 1 920 pixels
Height           : 798 pixels
Display aspect ratio       : 2.40:1
Frame rate mode        : Constant
Frame rate           : 23.976 fps
Color space          : YUV
Chroma subsampling       : 4:2:0
Bit depth          : 8 bits
Scan type          : Progressive
Bits/(Pixel*Frame)       : 0.436
Stream size          : 14.8 GiB (89%)
Writing library        : x264 core 135 r2345kMod f0c1c53
Encoding settings        : cabac=1 / ref=5 / deblock=1:-3:-3 / analyse=0x3:0x133 / me=umh / subme=11 / psy=1 / fade_compensate=0.00 / psy_rd=0.90:0.00 / mixed_ref=1 / me_range=64 / chroma_me=1 / trellis=2 / 8x8dct=1 / cqm=0 / deadzone=21,11 / fast_pskip=0 / chroma_qp_offset=-2 / threads=12 / lookahead_threads=2 / sliced_threads=0 / nr=0 / decimate=0 / interlaced=0 / bluray_compat=0 / constrained_intra=0 / bframes=7 / b_pyramid=2 / b_adapt=2 / b_bias=0 / direct=3 / weightb=1 / open_gop=0 / weightp=2 / keyint=250 / keyint_min=23 / scenecut=40 / intra_refresh=0 / rc_lookahead=40 / rc=2pass / mbtree=0 / bitrate=16000 / ratetol=1.0 / qcomp=0.75 / qpmin=0 / qpmax=69 / qpstep=4 / cplxblur=20.0 / qblur=0.5 / vbv_maxrate=50000 / vbv_bufsize=62500 / nal_hrd=none / ip_ratio=1.40 / pb_ratio=1.30 / aq=2:0.50
Language           : English
Default            : Yes
Forced           : No
Color primaries        : BT.709
Transfer characteristics     : BT.709
Matrix coefficients        : BT.709
Color range          : Limited
Audio
ID             : 2
Format           : DTS
Format/Info          : Digital Theater Systems
Mode             : 16
Format settings, Endianness    : Big
Codec ID           : A_DTS
Duration           : 2h 15mn
Bit rate mode          : Constant
Bit rate           : 1 509 Kbps
Channel(s)           : 6 channels
Channel positions        : Front: L C R, Side: L R, LFE
Sampling rate          : 48.0 KHz
Bit depth          : 24 bits
Compression mode         : Lossy
Stream size          : 1.43 GiB (9%)
Language           : English
Default            : Yes
Forced           : No
Text
ID             : 3
Format           : UTF-8
Codec ID           : S_TEXT/UTF8
Codec ID/Info          : UTF-8 Plain Text
Language           : English
Default            : No
Forced           : No
Menu
00:00:00.000         : en:00:00:00.000
00:03:18.907         : en:00:03:18.907
00:08:45.775         : en:00:08:45.775
00:17:50.361         : en:00:17:50.361
00:23:48.218         : en:00:23:48.218
00:32:49.342         : en:00:32:49.342
00:38:49.702         : en:00:38:49.702
00:46:57.481         : en:00:46:57.481
00:53:28.288         : en:00:53:28.288
00:59:14.551         : en:00:59:14.551
01:07:41.975         : en:01:07:41.975
01:11:06.929         : en:01:11:06.929
01:18:04.889         : en:01:18:04.889
01:24:29.940         : en:01:24:29.940
01:29:57.142         : en:01:29:57.142
01:36:17.021         : en:01:36:17.021
01:43:52.435         : en:01:43:52.435
01:50:59.194         : en:01:50:59.194
01:58:34.190         : en:01:58:34.190
02:09:26.717         : en:02:09:26.717
冰上奇迹/应战奇迹 Miracle.2004.1080p.BluRay.x264.DTS-FGT 16.6GB-2.jpg 冰上奇迹/应战奇迹 Miracle.2004.1080p.BluRay.x264.DTS-FGT 16.6GB-3.jpg
冰上奇迹/应战奇迹 Miracle.2004.1080p.BluRay.x264.DTS-FGT 16.6GB-4.jpg 冰上奇迹/应战奇迹 Miracle.2004.1080p.BluRay.x264.DTS-FGT 16.6GB-5.jpg
冰上奇迹/应战奇迹 Miracle.2004.1080p.BluRay.x264.DTS-FGT 16.6GB-6.jpg 冰上奇迹/应战奇迹 Miracle.2004.1080p.BluRay.x264.DTS-FGT 16.6GB-7.jpg
              
              






回复

使用道具 举报

懒得打字嘛,点击右侧快捷回复 【右侧内容,后台自定义】
您需要登录后才可以回帖 登录 | 立即加入

本版积分规则

Archiver|小黑屋| 蓝光电影网 |网站地图

Copyright © 2021 Comsenz Inc. Powered by 蓝光电影网

蓝光电影网

本站内容由用户自主分享和转载自互联网,转载目的在于传递更多信息,并不代表本网赞同其观点和对其真实性负责。

如有侵权、违反国家法律政策行为,请联系我们,我们会第一时间及时清除和处理!

举报反馈邮箱:[email protected]

快速回复 返回顶部 返回列表