找回密码

蓝光电影网

查看: 559|回复: 2

[剧情] 女守卫们/梦断庄园 The.Guardians.2017.720p.BluRay.x264-DEPTH 6.55GB

[复制链接]
蓝光币
623
发表于 2018-9-15 17:37:53 | 显示全部楼层 |阅读模式

女保卫们/梦断庄园 The.Guardians.2017.720p.BluRay.x264-DEPTH 6.55GB-1.jpg
◎译  名 女保卫们/梦断庄园(港)/保护者
◎片  名 Les Gardiennes
◎年  代 2017
◎产  地 法国
◎类  别 剧情
◎语  言 法语
◎上映日期 2017-09-09(多伦多电影节)/2017-12-06(法国)
◎豆瓣评分 7.0/10 from 244 users
◎豆瓣链接 https://movie.douban.com/subject/26979154/
◎片  长 134分钟
◎导  演 夏维尔·毕沃斯 Xavier Beauvois
◎主  演 纳塔莉·贝伊 Nathalie Baye
      劳拉·斯梅特 Laura Smet
      奥利维尔·雷堡汀 Olivier Rabourdin
      Iris Bry
      Yann Bean
      塞瑞尔·戴思科斯 Cyril Descours
      Ophélie-Marion Debiais

◎简  介

  第一次天下大战如火如荼,法国男丁全被征召参军,留下妇孺保卫故里。家属庄园的母亲请来孤儿法仙妮帮手农耕事务,勤恳能干的她深得高低众人爱好。但是当汉子连续从疆场归来,各类恩怨爱恨随之而起,为庄园的安宁带来暗涌,法仙妮亦被赶出了庄园……凭《人神之间》(2010)获戛纳评审团大奖的泽维尔·波瓦,以诗意镜头描画法国乡郊景色,美得教人联想起泰伦斯·马利克的《天堂之日》(1978),最初一幕则如同向库布里克二战典范 《名誉之路》(1957)致敬。

◎获奖情况

  第43届法国凯撒电影奖  (2018)
  最好新人女演员(提名) Iris Bry
  最好改编剧本(提名) 福瑞迪日·莫罗 / Marie-Julie Maille / 泽维尔·布瓦
  最好摄影(提名)
  最好打扮(提名)

  1. Video
  2. ID                                       : 1
  3. Format                                   : AVC
  4. Format/Info                              : Advanced Video Codec
  5. Format profile                           : [url=/cdn-cgi/l/email-protection][email protected][/url]
  6. Format settings                          : CABAC / 12 Ref Frames
  7. Format settings, CABAC                   : Yes
  8. Format settings, RefFrames               : 12 frames
  9. Codec ID                                 : V_MPEG4/ISO/AVC
  10. Duration                                 : 2 h 14 min
  11. Bit rate                                 : 5 444 kb/s
  12. Width                                    : 1 280 pixels
  13. Height                                   : 536 pixels
  14. Display aspect ratio                     : 2.40:1
  15. Frame rate mode                          : Constant
  16. Frame rate                               : 23.976 (24000/1001) FPS
  17. Color space                              : YUV
  18. Chroma subsampling                       : 4:2:0
  19. Bit depth                                : 8 bits
  20. Scan type                                : Progressive
  21. Bits/(Pixel*Frame)                       : 0.331
  22. Stream size                              : 5.13 GiB (78%)
  23. Writing library                          : x264 core 155 r2901 7d0ff22
  24. Encoding settings                        : cabac=1 / ref=12 / deblock=1:-2:-2 / analyse=0x3:0x133 / me=umh / subme=10 / psy=1 / psy_rd=1.00:0.15 / mixed_ref=1 / me_range=32 / chroma_me=1 / trellis=2 / 8x8dct=1 / cqm=0 / deadzone=21,11 / fast_pskip=0 / chroma_qp_offset=-3 / threads=17 / lookahead_threads=2 / sliced_threads=0 / nr=0 / decimate=1 / interlaced=0 / bluray_compat=0 / constrained_intra=0 / bframes=8 / b_pyramid=2 / b_adapt=2 / b_bias=0 / direct=3 / weightb=1 / open_gop=0 / weightp=2 / keyint=240 / keyint_min=24 / scenecut=40 / intra_refresh=0 / rc_lookahead=60 / rc=2pass / mbtree=1 / bitrate=5444 / ratetol=1.0 / qcomp=0.60 / qpmin=0 / qpmax=69 / qpstep=4 / cplxblur=20.0 / qblur=0.5 / ip_ratio=1.40 / aq=3:0.90
  25. Default                                  : Yes
  26. Forced                                   : No

  27. Audio
  28. ID                                       : 2
  29. Format                                   : DTS
  30. Format/Info                              : Digital Theater Systems
  31. Mode                                     : 16
  32. Format settings, Endianness              : Big
  33. Codec ID                                 : A_DTS
  34. Duration                                 : 2 h 14 min
  35. Bit rate mode                            : Constant
  36. Bit rate                                 : 1 509 kb/s
  37. Channel(s)                               : 6 channels
  38. Channel positions                        : Front: L C R, Side: L R, LFE
  39. Sampling rate                            : 48.0 kHz
  40. Frame rate                               : 93.750 FPS (512 SPF)
  41. Bit depth                                : 24 bits
  42. Compression mode                         : Lossy
  43. Stream size                              : 1.42 GiB (22%)
  44. Language                                 : French
  45. Default                                  : Yes
  46. Forced                                   : No

  47. Text #1
  48. ID                                       : 3
  49. Format                                   : UTF-8
  50. Codec ID                                 : S_TEXT/UTF8
  51. Codec ID/Info                            : UTF-8 Plain Text
  52. Duration                                 : 2 h 7 min
  53. Bit rate                                 : 21 b/s
  54. Count of elements                        : 760
  55. Stream size                              : 20.0 KiB (0%)
  56. Language                                 : English
  57. Default                                  : Yes
  58. Forced                                   : No

  59. Text #2
  60. ID                                       : 4
  61. Format                                   : UTF-8
  62. Codec ID                                 : S_TEXT/UTF8
  63. Codec ID/Info                            : UTF-8 Plain Text
  64. Duration                                 : 2 h 3 min
  65. Bit rate                                 : 22 b/s
  66. Count of elements                        : 816
  67. Stream size                              : 20.0 KiB (0%)
  68. Title                                    : SDH
  69. Language                                 : English
  70. Default                                  : No
  71. Forced                                   : No

  72. Menu
  73. 00:00:00.000                             : en:00:00:00.000
  74. 00:12:11.314                             : en:00:12:11.314
  75. 00:23:52.473                             : en:00:23:52.473
  76. 00:35:34.299                             : en:00:35:34.299
  77. 00:42:23.207                             : en:00:42:23.207
  78. 00:48:07.510                             : en:00:48:07.510
  79. 00:55:07.179                             : en:00:55:07.179
  80. 01:00:59.865                             : en:01:00:59.865
  81. 01:08:25.685                             : en:01:08:25.685
  82. 01:15:02.540                             : en:01:15:02.540
  83. 01:23:09.860                             : en:01:23:09.860
  84. 01:30:37.932                             : en:01:30:37.932
  85. 01:40:35.071                             : en:01:40:35.071
  86. 01:51:20.549                             : en:01:51:20.549
  87. 01:58:28.977                             : en:01:58:28.977
  88. 02:03:04.961                             : en:02:03:04.961
  89. 02:10:21.522                             : en:02:10:21.522
复制代码

复制代码

女保卫们/梦断庄园 The.Guardians.2017.720p.BluRay.x264-DEPTH 6.55GB-2.jpg






回复

使用道具 举报

懒得打字嘛,点击右侧快捷回复 【右侧内容,后台自定义】
您需要登录后才可以回帖 登录 | 立即加入

本版积分规则

Archiver|小黑屋| 蓝光电影网 |网站地图

Copyright © 2021 Comsenz Inc. Powered by 蓝光电影网

蓝光电影网

本站内容由用户自主分享和转载自互联网,转载目的在于传递更多信息,并不代表本网赞同其观点和对其真实性负责。

如有侵权、违反国家法律政策行为,请联系我们,我们会第一时间及时清除和处理!

举报反馈邮箱:[email protected]

快速回复 返回顶部 返回列表