找回密码

蓝光电影网

查看: 1176|回复: 7

[喜剧] 德鲁大叔/街頭祖霸王 Uncle.Drew.2018.720p.BluRay.x264-GECKOS 4.40GB

[复制链接]
蓝光币
623
发表于 2018-9-15 17:38:35 | 显示全部楼层 |阅读模式

德鲁大叔/街頭祖霸王 Uncle.Drew.2018.720p.BluRay.x264-GECKOS 4.40GB-1.jpg
◎译  名 德鲁大叔/街頭祖霸王(港)
◎片  名 Uncle Drew
◎年  代 2018
◎产  地 美国
◎类  别 笑剧/活动
◎语  言 英语
◎上映日期 2018-06-29(美国)
◎豆瓣评分 7.2/10 from 2,100 users
◎豆瓣链接 https://movie.douban.com/subject/27074301/
◎片  长 103分钟
◎导  演 查尔斯·斯通三世 Charles Stone III
◎主  演 凯里·欧文 Kyie Irving
      里尔·莱尔·哈瓦瑞 Lil Rel Howery
      沙奎尔·奥尼尔 Shaquille O'Neal
      克里斯·韦伯 Chris Webber
      雷吉·米勒 Reggie Miller
      内特·罗宾逊 Nate Robinson
      丽萨·莱斯利 Lisa Leslie
      埃丽卡·阿什 Erica Ash
      蒂凡尼·哈迪斯 Tiffany Haddish
      尼克·克罗尔 Nick Kroll
      迈克·艾普斯 Mike Epps
      J·B·斯穆夫 J.B. Smoove
      亚当·拉扎尔-怀特 Adam Lazarre-White
      比尔·沃尔顿 Bill Walton
      乔治·格文 George Gervin
      史蒂夫·纳什 Steve Nash
      迪肯贝·穆托姆博 Dikembe Mutombo
      宁宁·利克斯 NeNe Leakes
      特伦斯·罗斯摩尔 Terence Rosemore
      德韦恩·博伊德 Dwayne Boyd
      以利亚·埃弗雷特 Elijah Everett
      盖奇·劳森 Gage Lawson

◎简  介

  今年早些时辰曾有媒体爆出凯里·欧文的短片《德鲁大叔》将改编长大片电影,本日又有媒体传出"大鲨鱼"沙奎尔·奥尼尔将加盟该片。
  电影将报告一群利害的老年篮球运带动,违反参赛资历,加入著名的洛克锦标赛,在赛场上老迈爷球场狂虐小年轻,让人“目瞪狗呆”的故事。
  同名短片首要在YouTube之类的平台上播放,主题是晚年的老迈爷大妈重回球场,找回青春,和百事可乐一路享用篮球的欢畅。电影一共四部,第一部欧文自己出演,第二部约请了骑士队队友凯文乐福,第三部约请了玛雅·摩尔和特·罗宾逊,最初一部是和雷·阿伦飚三分。NBA指环王比尔·拉塞尔串场。这几部电影虽然内容稍有分歧,不外衣路一样。
  短片在各大影视网站上获得很高的评价,消息来历说,这个项目将由众多明星加盟,其中不乏其他几名顶尖的NBA球员,具体还有谁还不成知。
  Howery曾在《逃出绝命镇》中有出色表演,会在其中饰演一个喜好篮球的年轻人,寻觅德鲁大叔的帮助。
  影片将由狮门影业出品,马蒂·鲍文和威克·戈弗雷担任制片,《绝地流亡》编剧Jay Longino介入剧本创作。影片上映日期未定。

  1. Video
  2. ID                                       : 1
  3. Format                                   : AVC
  4. Format/Info                              : Advanced Video Codec
  5. Format profile                           : [url=/cdn-cgi/l/email-protection][email protected][/url]
  6. Format settings                          : CABAC / 5 Ref Frames
  7. Format settings, CABAC                   : Yes
  8. Format settings, RefFrames               : 5 frames
  9. Codec ID                                 : V_MPEG4/ISO/AVC
  10. Duration                                 : 1 h 43 min
  11. Bit rate                                 : 5 415 kb/s
  12. Width                                    : 1 280 pixels
  13. Height                                   : 688 pixels
  14. Display aspect ratio                     : 1.85:1
  15. Frame rate mode                          : Constant
  16. Frame rate                               : 23.976 FPS
  17. Color space                              : YUV
  18. Chroma subsampling                       : 4:2:0
  19. Bit depth                                : 8 bits
  20. Scan type                                : Progressive
  21. Bits/(Pixel*Frame)                       : 0.256
  22. Stream size                              : 3.91 GiB (89%)
  23. Writing library                          : x264 core 157 r2932 303c484
  24. Encoding settings                        : cabac=1 / ref=5 / deblock=1:0:0 / analyse=0x3:0x133 / me=umh / subme=7 / psy=1 / psy_rd=1.00:0.00 / mixed_ref=1 / me_range=16 / chroma_me=1 / trellis=1 / 8x8dct=1 / cqm=0 / deadzone=21,11 / fast_pskip=0 / chroma_qp_offset=-2 / threads=21 / lookahead_threads=3 / sliced_threads=0 / nr=0 / decimate=1 / interlaced=0 / bluray_compat=0 / constrained_intra=0 / bframes=3 / b_pyramid=2 / b_adapt=1 / b_bias=0 / direct=1 / weightb=1 / open_gop=0 / weightp=2 / keyint=250 / keyint_min=23 / scenecut=40 / intra_refresh=0 / rc_lookahead=40 / rc=2pass / mbtree=1 / bitrate=5415 / ratetol=1.0 / qcomp=0.60 / qpmin=0 / qpmax=69 / qpstep=4 / cplxblur=20.0 / qblur=0.5 / ip_ratio=1.40 / aq=1:1.00
  25. Language                                 : English
  26. Default                                  : Yes
  27. Forced                                   : No

  28. Audio
  29. ID                                       : 2
  30. Format                                   : AC-3
  31. Format/Info                              : Audio Coding 3
  32. Format settings, Endianness              : Big
  33. Codec ID                                 : A_AC3
  34. Duration                                 : 1 h 43 min
  35. Bit rate mode                            : Constant
  36. Bit rate                                 : 640 kb/s
  37. Channel(s)                               : 6 channels
  38. Channel positions                        : Front: L C R, Side: L R, LFE
  39. Sampling rate                            : 48.0 kHz
  40. Frame rate                               : 31.250 FPS (1536 SPF)
  41. Bit depth                                : 16 bits
  42. Compression mode                         : Lossy
  43. Stream size                              : 473 MiB (11%)
  44. Language                                 : English
  45. Service kind                             : Complete Main
  46. Default                                  : Yes
  47. Forced                                   : No

  48. Menu
  49. 00:00:00.000                             : en:00:00:00.000
  50. 00:06:33.435                             : en:00:06:33.435
  51. 00:11:59.344                             : en:00:11:59.344
  52. 00:17:44.939                             : en:00:17:44.939
  53. 00:25:45.335                             : en:00:25:45.335
  54. 00:30:54.227                             : en:00:30:54.227
  55. 00:37:45.847                             : en:00:37:45.847
  56. 00:42:25.793                             : en:00:42:25.793
  57. 00:48:51.387                             : en:00:48:51.387
  58. 00:54:09.788                             : en:00:54:09.788
  59. 01:00:13.068                             : en:01:00:13.068
  60. 01:06:07.964                             : en:01:06:07.964
  61. 01:12:28.969                             : en:01:12:28.969
  62. 01:17:34.149                             : en:01:17:34.149
  63. 01:26:37.943                             : en:01:26:37.943
  64. 01:32:36.384                             : en:01:32:36.384
复制代码

复制代码

德鲁大叔/街頭祖霸王 Uncle.Drew.2018.720p.BluRay.x264-GECKOS 4.40GB-2.jpg






回复

使用道具 举报

懒得打字嘛,点击右侧快捷回复 【右侧内容,后台自定义】
您需要登录后才可以回帖 登录 | 立即加入

本版积分规则

Archiver|小黑屋| 蓝光电影网 |网站地图

Copyright © 2021 Comsenz Inc. Powered by 蓝光电影网

蓝光电影网

本站内容由用户自主分享和转载自互联网,转载目的在于传递更多信息,并不代表本网赞同其观点和对其真实性负责。

如有侵权、违反国家法律政策行为,请联系我们,我们会第一时间及时清除和处理!

举报反馈邮箱:[email protected]

快速回复 返回顶部 返回列表