找回密码

蓝光电影网

查看: 477|回复: 2

[剧情] 扎马/流亡将军沙马 Zama.2017.LiMiTED.720p.BluRay.x264-CADAVER 4.36GB

[复制链接]
蓝光币
623
发表于 2018-9-15 17:40:02 | 显示全部楼层 |阅读模式

扎马/亡命将军沙马 Zama.2017.LiMiTED.720p.BluRay.x264-CADAVER 4.36GB-1.jpg
◎译  名 扎马/亡命将军沙马(港)
◎片  名 Zama
◎年  代 2017
◎产  地 阿根廷/西班牙/法国/荷兰/美国/巴西/墨西哥/葡萄牙/黎巴嫩/瑞士
◎类  别 剧情
◎语  言 西班牙语
◎上映日期 2017-08-31(威尼斯电影节)/2017-09-28(阿根廷)
◎豆瓣评分 7.0/10 from 628 users
◎豆瓣链接 https://movie.douban.com/subject/24719134/
◎片  长 115分钟
◎导  演 卢奎西亚·马特尔 Lucrecia Martel
◎主  演 丹尼尔·希梅内斯·卡乔 Daniel Giménez Cacho
      洛拉·杜埃尼亚斯 Lola Due?as
      马修斯·纳克加勒 Matheus Nachtergaele
      胡安·米努欣 Juan Minujín
      马丽雅娜·努涅斯 Mariana Nunes
      豪尔赫·罗曼 Jorge Román

◎简  介

  扎马,一个诞生于南美的西班牙军官,期待一封国王授与他更好的位置的调令。他的处境很奥妙。为此,他被迫驯服地接管每项使命。固然,国王的号令从未到来。当发现期待是徒劳的时辰,他决议加入一个危险的使命,以期让国王听到他的事。但是,当生命处于危险当中,他发现他唯一的愿望是在世。

  1. Video
  2. ID                                       : 1
  3. Format                                   : AVC
  4. Format/Info                              : Advanced Video Codec
  5. Format profile                           : [url=/cdn-cgi/l/email-protection][email protected][/url]
  6. Format settings                          : CABAC / 5 Ref Frames
  7. Format settings, CABAC                   : Yes
  8. Format settings, RefFrames               : 5 frames
  9. Codec ID                                 : V_MPEG4/ISO/AVC
  10. Duration                                 : 1 h 54 min
  11. Bit rate                                 : 5 004 kb/s
  12. Width                                    : 1 280 pixels
  13. Height                                   : 720 pixels
  14. Display aspect ratio                     : 16:9
  15. Frame rate mode                          : Constant
  16. Frame rate                               : 24.000 FPS
  17. Color space                              : YUV
  18. Chroma subsampling                       : 4:2:0
  19. Bit depth                                : 8 bits
  20. Scan type                                : Progressive
  21. Bits/(Pixel*Frame)                       : 0.226
  22. Stream size                              : 4.00 GiB (92%)
  23. Writing library                          : x264 core 157 r2932 303c484
  24. Encoding settings                        : cabac=1 / ref=5 / deblock=1:-3:-3 / analyse=0x3:0x133 / me=umh / subme=8 / psy=1 / psy_rd=1.00:0.00 / mixed_ref=1 / me_range=16 / chroma_me=1 / trellis=1 / 8x8dct=1 / cqm=0 / deadzone=21,11 / fast_pskip=0 / chroma_qp_offset=-2 / threads=22 / lookahead_threads=3 / sliced_threads=0 / nr=0 / decimate=1 / interlaced=0 / bluray_compat=0 / constrained_intra=0 / bframes=3 / b_pyramid=2 / b_adapt=1 / b_bias=0 / direct=3 / weightb=1 / open_gop=0 / weightp=2 / keyint=250 / keyint_min=24 / scenecut=40 / intra_refresh=0 / rc_lookahead=50 / rc=2pass / mbtree=1 / bitrate=5004 / ratetol=1.0 / qcomp=0.60 / qpmin=0 / qpmax=69 / qpstep=4 / cplxblur=20.0 / qblur=0.5 / vbv_maxrate=62500 / vbv_bufsize=78125 / nal_hrd=none / filler=0 / ip_ratio=1.40 / aq=1:1.00
  25. Default                                  : Yes
  26. Forced                                   : No

  27. Audio
  28. ID                                       : 2
  29. Format                                   : AC-3
  30. Format/Info                              : Audio Coding 3
  31. Format settings, Endianness              : Big
  32. Codec ID                                 : A_AC3
  33. Duration                                 : 1 h 54 min
  34. Bit rate mode                            : Constant
  35. Bit rate                                 : 448 kb/s
  36. Channel(s)                               : 6 channels
  37. Channel positions                        : Front: L C R, Side: L R, LFE
  38. Sampling rate                            : 48.0 kHz
  39. Frame rate                               : 31.250 FPS (1536 SPF)
  40. Bit depth                                : 16 bits
  41. Compression mode                         : Lossy
  42. Stream size                              : 368 MiB (8%)
  43. Language                                 : Spanish
  44. Service kind                             : Complete Main
  45. Default                                  : Yes
  46. Forced                                   : No

  47. Text
  48. ID                                       : 3
  49. Format                                   : UTF-8
  50. Codec ID                                 : S_TEXT/UTF8
  51. Codec ID/Info                            : UTF-8 Plain Text
  52. Duration                                 : 1 h 45 min
  53. Bit rate                                 : 31 b/s
  54. Count of elements                        : 874
  55. Stream size                              : 24.2 KiB (0%)
  56. Language                                 : English
  57. Default                                  : Yes
  58. Forced                                   : No

  59. Menu
  60. 00:00:00.000                             : en:00:00:00.000
  61. 00:09:23.417                             : en:00:09:23.417
  62. 00:18:37.292                             : en:00:18:37.292
  63. 00:27:55.917                             : en:00:27:55.917
  64. 00:36:49.708                             : en:00:36:49.708
  65. 00:48:04.958                             : en:00:48:04.958
  66. 00:57:11.000                             : en:00:57:11.000
  67. 01:06:59.792                             : en:01:06:59.792
  68. 01:16:24.583                             : en:01:16:24.583
  69. 01:22:44.083                             : en:01:22:44.083
  70. 01:33:42.000                             : en:01:33:42.000
  71. 01:40:29.208                             : en:01:40:29.208
复制代码

复制代码

扎马/亡命将军沙马 Zama.2017.LiMiTED.720p.BluRay.x264-CADAVER 4.36GB-2.jpg






回复

使用道具 举报

懒得打字嘛,点击右侧快捷回复 【右侧内容,后台自定义】
您需要登录后才可以回帖 登录 | 立即加入

本版积分规则

Archiver|小黑屋| 蓝光电影网 |网站地图

Copyright © 2021 Comsenz Inc. Powered by 蓝光电影网

蓝光电影网

本站内容由用户自主分享和转载自互联网,转载目的在于传递更多信息,并不代表本网赞同其观点和对其真实性负责。

如有侵权、违反国家法律政策行为,请联系我们,我们会第一时间及时清除和处理!

举报反馈邮箱:[email protected]

快速回复 返回顶部 返回列表