找回密码

蓝光电影网

查看: 408|回复: 1

[剧情] 生命之树/生命树 The.Tree.of.Life.2011.INTERNAL.REMASTERED.720p.BluRay.x264-AMIABLE 9.42GB

[复制链接]
蓝光币
623
发表于 2018-9-15 17:41:11 | 显示全部楼层 |阅读模式

生命之树/生命树 The.Tree.of.Life.2011.INTERNAL.REMASTERED.720p.BluRay.x264-AMIABLE 9.42GB-1.jpg
◎译  名 生命之树/生命树(港)/永生树(台)/家谱
◎片  名 The Tree of Life
◎年  代 2011
◎产  地 美国
◎类  别 剧情/奇异/家庭
◎语  言 英语
◎上映日期 2011-05-16(戛纳电影节)/2011-05-27(美国部分上映)
◎豆瓣评分 7.0/10 from 31,993 users
◎豆瓣链接 https://movie.douban.com/subject/2336735/
◎片  长 139分钟
◎导  演 泰伦斯·马力克 Terrence Malick
◎主  演 布拉德·皮特 Brad Pitt
      西恩·潘 Sean Penn
      杰西卡·查斯坦 Jessica Chastain
      亨特·麦奎肯 Hunter McCracken
      拉勒米·艾普勒 Laramie Eppler
      泰伊·谢里丹 Tye Sheridan
      费奥纳·肖 Fiona Shaw
      威尔·华莱士 Will Wallace
      Jessica Fuselier
      Nicolas Gonda
      Kelly Koonce
      Bryce Boudoin
      Jimmy Donaldson
      Kameron Vaughn
      科尔·科伯恩 Cole Cockburn

◎简  介

  故事发生在20世纪50年月的美国中西部,经过报告一个典型的美国家庭故事表达了创作者对生命的看法。仆人公是一位叫杰克(亨特·迈奎肯 Hunter McCracken 饰)的11岁男孩,他是家里三兄弟中的一个,父亲(布拉德·皮特 Brad Pitt 饰)严厉而粗鲁,母亲(杰西卡·查斯坦Jessica Chastain 饰)温柔却又碌碌无为,哥哥的死令他的家庭发生了改变。成年后的杰克(西恩·潘 Sean Penn 饰)生活得不顺遂,当他思考自己的人生轨迹时重新面临了自己的记忆,起头站在分歧的角度看待他的怙恃、家庭、童年,最初终究谅解了父亲,而且对生命和生活还有信仰有了更深的了解。
  本片获得第64届戛纳电影节金棕榈大奖,并获得最好影片、最好导演、最好摄影提名。

◎获奖情况

  第84届奥斯卡金像奖  (2012)
  最好影片(提名) Sarah Green / 迪·加德纳 / 比尔·波拉德 / Grant Hill
  最好导演(提名) 泰伦斯·马力克
  最好摄影(提名) 艾曼努尔·卢贝兹基

  第64届戛纳电影节  (2011)
  主比赛单元 金棕榈奖 泰伦斯·马力克

  第56届意大利大卫奖  (2012)
  最好外语片(提名) 泰伦斯·马力克

  第77届纽约影评人协会奖  (2011)
  最好女配角 杰西卡·查斯坦
  最好摄影 艾曼努尔·卢贝兹基

  第17届美国批评家挑选电影奖  (2012)
  最好影片(提名)
  最好摄影 艾曼努尔·卢贝兹基
  最好美术指导(提名) David Crank / 杰克·菲斯克
  最好音效(提名)
  最好视觉结果(提名)

  第12届美国电影学会奖  (2011)
  年度佳片

  第10届华盛顿影评人协会奖  (2011)
  最好摄影 艾曼努尔·卢贝兹基
  最好艺术指导(提名) Jeanette Scott / 杰克·菲斯克

  第32届波士顿影评人协会奖  (2011)
  最好摄影 艾曼努尔·卢贝兹基

  第16届圣地亚哥影评人协会奖  (2011)
  年度劳模 杰西卡·查斯坦
  最好影片(提名)
  最好导演(提名) 泰伦斯·马力克
  最好摄影 艾曼努尔·卢贝兹基
  最好剪辑(提名) 比利·韦伯 / Mark Yoshikawa / Jay Rabinowitz / 丹尼尔·雷森德 / 汉克·科温
  最好配乐(提名) 亚历山大·德斯普拉
  最好艺术指导(提名) 杰克·菲斯克

  第24届芝加哥影评人协会奖  (2011)
  最好影片
  最好导演 泰伦斯·马力克
  最好男配角(提名) 布拉德·皮特
  最好女配角 杰西卡·查斯坦
  最好原创剧本(提名) 泰伦斯·马力克
  最好摄影 艾曼努尔·卢贝兹基
  最具潜力演员(提名) 亨特·麦奎肯

  第45届堪萨斯影评人协会奖  (2012)
  最好导演 泰伦斯·马力克
  最好女配角 杰西卡·查斯坦

  第11届凤凰城影评人协会奖  (2011)
  最好剪辑(提名) 比利·韦伯 / Mark Yoshikawa / Jay Rabinowitz / 丹尼尔·雷森德 / 汉克·科温
  十佳影片

  第20届东南影评人协会奖  (2011)
  最好摄影 艾曼努尔·卢贝兹基
  十大佳片

  第2届豆瓣电影鑫像奖  (2012)
  鑫豆单元 最好影片(外语)(提名)
  鑫豆单元 最好导演(外语) 泰伦斯·马力克

  1. Video
  2. ID                                       : 1
  3. Format                                   : AVC
  4. Format/Info                              : Advanced Video Codec
  5. Format profile                           : [url=/cdn-cgi/l/email-protection][email protected][/url]
  6. Format settings                          : CABAC / 9 Ref Frames
  7. Format settings, CABAC                   : Yes
  8. Format settings, RefFrames               : 9 frames
  9. Codec ID                                 : V_MPEG4/ISO/AVC
  10. Duration                                 : 2 h 19 min
  11. Bit rate                                 : 7 982 kb/s
  12. Width                                    : 1 280 pixels
  13. Height                                   : 694 pixels
  14. Display aspect ratio                     : 1.85:1
  15. Frame rate mode                          : Constant
  16. Frame rate                               : 23.976 (24000/1001) FPS
  17. Color space                              : YUV
  18. Chroma subsampling                       : 4:2:0
  19. Bit depth                                : 8 bits
  20. Scan type                                : Progressive
  21. Bits/(Pixel*Frame)                       : 0.375
  22. Stream size                              : 7.75 GiB (82%)
  23. Writing library                          : x264 core 157 r2932 303c484
  24. Encoding settings                        : cabac=1 / ref=9 / deblock=1:-3:-3 / analyse=0x3:0x133 / me=umh / subme=10 / psy=1 / psy_rd=0.95:0.00 / mixed_ref=1 / me_range=32 / chroma_me=1 / trellis=2 / 8x8dct=1 / cqm=0 / deadzone=21,11 / fast_pskip=0 / chroma_qp_offset=-2 / threads=22 / lookahead_threads=3 / sliced_threads=0 / nr=0 / decimate=1 / interlaced=0 / bluray_compat=0 / constrained_intra=0 / bframes=8 / b_pyramid=2 / b_adapt=2 / b_bias=0 / direct=3 / weightb=1 / open_gop=0 / weightp=2 / keyint=240 / keyint_min=24 / scenecut=40 / intra_refresh=0 / rc_lookahead=60 / rc=crf / mbtree=1 / crf=17.5 / qcomp=0.60 / qpmin=0 / qpmax=69 / qpstep=4 / ip_ratio=1.30 / aq=3:0.80
  25. Language                                 : English
  26. Default                                  : Yes
  27. Forced                                   : No
  28. Statistics Tags Issue                    : no_variable_data 1970-01-01 00:00:00 / no_variable_data 2010-02-22 21:41:29
  29. FromStats_BitRate                        : 8169114
  30. FromStats_Duration                       : 02:19:05.004000000
  31. FromStats_FrameCount                     : 200080
  32. FromStats_StreamSize                     : 8521411445

  33. Audio
  34. ID                                       : 2
  35. Format                                   : DTS
  36. Format/Info                              : Digital Theater Systems
  37. Mode                                     : 16
  38. Format settings, Endianness              : Big
  39. Codec ID                                 : A_DTS
  40. Duration                                 : 2 h 19 min
  41. Bit rate mode                            : Constant
  42. Bit rate                                 : 1 509 kb/s
  43. Channel(s)                               : 6 channels
  44. Channel positions                        : Front: L C R, Side: L R, LFE
  45. Sampling rate                            : 48.0 kHz
  46. Frame rate                               : 93.750 FPS (512 SPF)
  47. Bit depth                                : 24 bits
  48. Compression mode                         : Lossy
  49. Stream size                              : 1.47 GiB (16%)
  50. Language                                 : English
  51. Default                                  : Yes
  52. Forced                                   : No
  53. Statistics Tags Issue                    : no_variable_data 1970-01-01 00:00:00 / no_variable_data 2010-02-22 21:41:29
  54. FromStats_BitRate                        : 1508999
  55. FromStats_Duration                       : 02:19:05.014000000
  56. FromStats_FrameCount                     : 782345
  57. FromStats_StreamSize                     : 1574078140

  58. Text #1
  59. ID                                       : 3
  60. Format                                   : UTF-8
  61. Codec ID                                 : S_TEXT/UTF8
  62. Codec ID/Info                            : UTF-8 Plain Text
  63. Title                                    : Stripped SRT
  64. Language                                 : English
  65. Default                                  : No
  66. Forced                                   : No
  67. Statistics Tags Issue                    : no_variable_data 1970-01-01 00:00:00 / no_variable_data 2010-02-22 21:41:29
  68. FromStats_BitRate                        : 17
  69. FromStats_Duration                       : 02:10:19.342000000
  70. FromStats_FrameCount                     : 602
  71. FromStats_StreamSize                     : 17263

  72. Text #2
  73. ID                                       : 4
  74. Format                                   : UTF-8
  75. Codec ID                                 : S_TEXT/UTF8
  76. Codec ID/Info                            : UTF-8 Plain Text
  77. Title                                    : SDH SRT
  78. Language                                 : English
  79. Default                                  : No
  80. Forced                                   : No
  81. Statistics Tags Issue                    : no_variable_data 1970-01-01 00:00:00 / no_variable_data 2010-02-22 21:41:29
  82. FromStats_BitRate                        : 22
  83. FromStats_Duration                       : 02:16:43.987000000
  84. FromStats_FrameCount                     : 790
  85. FromStats_StreamSize                     : 23066

  86. Text #3
  87. ID                                       : 5
  88. Format                                   : PGS
  89. Muxing mode                              : zlib
  90. Codec ID                                 : S_HDMV/PGS
  91. Codec ID/Info                            : Picture based subtitle format used on BDs/HD-DVDs
  92. Title                                    : SDH
  93. Language                                 : English
  94. Default                                  : No
  95. Forced                                   : No
  96. Statistics Tags Issue                    : no_variable_data 1970-01-01 00:00:00 / no_variable_data 2010-02-22 21:41:29
  97. FromStats_BitRate                        : 9318
  98. FromStats_Duration                       : 02:16:43.987000000
  99. FromStats_FrameCount                     : 1582
  100. FromStats_StreamSize                     : 9555814

  101. Menu
  102. 00:00:00.000                             : :00:00:00.000
  103. 00:04:22.012                             : :00:04:22.012
  104. 00:11:22.223                             : :00:11:22.223
  105. 00:19:47.228                             : :00:19:47.228
  106. 00:37:09.060                             : :00:37:09.060
  107. 00:48:49.093                             : :00:48:49.093
  108. 00:55:37.376                             : :00:55:37.376
  109. 00:59:01.079                             : :00:59:01.079
  110. 01:09:39.008                             : :01:09:39.008
  111. 01:16:00.347                             : :01:16:00.347
  112. 01:20:01.213                             : :01:20:01.213
  113. 01:25:11.106                             : :01:25:11.106
  114. 01:27:57.647                             : :01:27:57.647
  115. 01:30:42.062                             : :01:30:42.062
  116. 01:37:25.798                             : :01:37:25.798
  117. 01:39:54.238                             : :01:39:54.238
  118. 01:41:46.517                             : :01:41:46.517
  119. 01:47:19.141                             : :01:47:19.141
  120. 01:54:08.675                             : :01:54:08.675
  121. 01:59:04.387                             : :01:59:04.387
  122. 02:01:28.072                             : :02:01:28.072
  123. 02:12:43.956                             : :02:12:43.956
复制代码

复制代码

生命之树/生命树 The.Tree.of.Life.2011.INTERNAL.REMASTERED.720p.BluRay.x264-AMIABLE 9.42GB-2.jpg






回复

使用道具 举报

懒得打字嘛,点击右侧快捷回复 【右侧内容,后台自定义】
您需要登录后才可以回帖 登录 | 立即加入

本版积分规则

Archiver|小黑屋| 蓝光电影网 |网站地图

Copyright © 2021 Comsenz Inc. Powered by 蓝光电影网

蓝光电影网

本站内容由用户自主分享和转载自互联网,转载目的在于传递更多信息,并不代表本网赞同其观点和对其真实性负责。

如有侵权、违反国家法律政策行为,请联系我们,我们会第一时间及时清除和处理!

举报反馈邮箱:[email protected]

快速回复 返回顶部 返回列表