蓝光电影网

 找回密码
 立即加入
搜索
查看: 69|回复: 0

[2160p] 摧花手 The.Bird.with.the.Crystal.Plumage.1970.ITALIAN.2160p.BluRay.x265.10bit.SDR.DTS-HD.MA.1.0-SWTYBLZ 56.13GB

[复制链接]
蓝光币
159
发表于 2021-7-19 00:29:03 | 显示全部楼层 |阅读模式


◎译  名 摧花手/Bird with the Glass Feathers/The Bird with the Crystal Plumage/水晶鸟
◎片  名 L'uccello dalle piume di cristallo
◎年  代 1970
◎产  地 意大利,西德
◎类  别 悬疑 / 惊悚 / 恐怖
◎语  言 意大利语
◎上映日期 1970-02-19
◎豆瓣评分 6.8/10 from 771 users
◎豆瓣链接 https://movie.douban.com/subject/1305981/
◎片  长 97分钟
◎导  演 达里奥·阿基多 Dario Argento
◎编  剧 达里奥·阿基多 Dario Argento
◎主  演 托尼·穆萨蒂 Tony Musante
       苏茜·肯道尔 Suzy Kendall
       恩里科·玛丽亚·萨莱诺 Enrico Maria Salerno
       埃娃·伦齐 Eva Renzi
       达里奥·阿基多 Dario Argento
       德罗热达·铎洛斯 Rosita Torosh
       卡拉·曼奇尼 Carla Mancini
◎标  签 意大利 | 悬疑 | 惊悚 | DarioArgento | 恐怖 | 1970 | 1970s | 意大利电影
◎简  介


  美国游客山姆隔着美术馆的玻璃窗,瞥见一宗企图谋杀,他的及时出现让凶手逃走了,获救的女子芳名莫尼卡。不久,山姆仿佛受了蛊惑似的对这宗谋杀着了迷,他决定追踪凶手的下落,这自然让他的女友朱丽娅很不快;而同时他和女友也开始接到威胁电话……
  1. Video
  2. ID                                       : 1
  3. Format                                   : HEVC
  4. Format/Info                              : High Efficiency Video Coding
  5. Format profile                           : Main [email protected]@High
  6. Codec ID                                 : V_MPEGH/ISO/HEVC
  7. Duration                                 : 1 h 36 min
  8. Bit rate                                 : 79.2 Mb/s
  9. Width                                    : 3 840 pixels
  10. Height                                   : 1 634 pixels
  11. Display aspect ratio                     : 2.35:1
  12. Frame rate mode                          : Constant
  13. Frame rate                               : 23.976 (24000/1001/189150) FPS
  14. Color space                              : YUV
  15. Chroma subsampling                       : 4:2:0
  16. Bit depth                                : 10 bits
  17. Bits/(Pixel*Frame)                       : 0.526
  18. Stream size                              : 53.5 GiB (96%)
  19. Writing library                          : x265 3.0ed72af837053:[Windows][GCC 8.2.0][64 bit] 10bit
  20. Encoding settings                        : cpuid=1111039 / frame-threads=6 / numa-pools=40 / wpp / no-pmode / no-pme / no-psnr / no-ssim / log-level=2 / input-csp=1 / input-res=3840x1634 / interlace=0 / total-frames=139169 / level-idc=51 / high-tier=1 / uhd-bd=0 / ref=3 / no-allow-non-conformance / repeat-headers / annexb / aud / hrd / info / hash=0 / no-temporal-layers / no-open-gop / min-keyint=1 / keyint=24 / gop-lookahead=0 / bframes=4 / b-adapt=2 / b-pyramid / bframe-bias=0 / rc-lookahead=25 / lookahead-slices=4 / scenecut=40 / radl=0 / no-splice / no-intra-refresh / ctu=64 / min-cu-size=8 / no-rect / no-amp / max-tu-size=32 / tu-inter-depth=1 / tu-intra-depth=1 / limit-tu=0 / rdoq-level=0 / dynamic-rd=0.00 / no-ssim-rd / signhide / no-tskip / nr-intra=0 / nr-inter=0 / no-constrained-intra / strong-intra-smoothing / max-merge=2 / limit-refs=3 / no-limit-modes / me=1 / subme=2 / merange=57 / temporal-mvp / weightp / no-weightb / no-analyze-src-pics / deblock=0:0 / no-sao / no-sao-non-deblock / rd=3 / no-early-skip / rskip / no-fast-intra / no-tskip-fast / no-cu-lossless / no-b-intra / no-splitrd-skip / rdpenalty=0 / psy-rd=2.00 / psy-rdoq=0.00 / no-rd-refine / no-lossless / cbqpoffs=0 / crqpoffs=0 / rc=crf / crf=16.0 / qcomp=0.60 / qpstep=4 / stats-write=0 / stats-read=0 / vbv-maxrate=160000 / vbv-bufsize=160000 / vbv-init=0.9 / crf-max=0.0 / crf-min=0.0 / ipratio=1.40 / pbratio=1.30 / aq-mode=1 / aq-strength=1.00 / cutree / zone-count=0 / no-strict-cbr / qg-size=32 / no-rc-grain / qpmax=69 / qpmin=0 / no-const-vbv / sar=1 / overscan=0 / videoformat=5 / range=0 / colorprim=2 / transfer=2 / colormatrix=2 / chromaloc=0 / display-window=0 / max-cll=0,0 / min-luma=0 / max-luma=1023 / log2-max-poc-lsb=8 / vui-timing-info / vui-hrd-info / slices=1 / opt-qp-pps / opt-ref-list-length-pps / no-multi-pass-opt-rps / scenecut-bias=0.05 / no-opt-cu-delta-qp / no-aq-motion / no-hdr / no-hdr-opt / no-dhdr10-opt / no-idr-recovery-sei / analysis-reuse-level=5 / scale-factor=0 / refine-intra=0 / refine-inter=0 / refine-mv=0 / refine-ctu-distortion=0 / no-limit-sao / ctu-info=0 / no-lowpass-dct / refine-analysis-type=0 / copy-pic=1 / max-ausize-factor=1.0 / no-dynamic-refine / no-single-sei / no-hevc-aq / qp-adaptation-range=1.00
  21. Default                                  : Yes
  22. Forced                                   : No

  23. Audio #1
  24. ID                                       : 2
  25. ID in the original source medium         : 4353 (0x1101)
  26. Format                                   : DTS XLL
  27. Format/Info                              : Digital Theater Systems
  28. Commercial name                          : DTS-HD Master Audio
  29. Codec ID                                 : A_DTS
  30. Duration                                 : 1 h 36 min
  31. Bit rate mode                            : Variable
  32. Bit rate                                 : 1 038 kb/s
  33. Channel(s)                               : 1 channel
  34. Channel layout                           : C
  35. Sampling rate                            : 48.0 kHz
  36. Frame rate                               : 93.750 FPS (512 SPF)
  37. Bit depth                                : 24 bits
  38. Compression mode                         : Lossless
  39. Stream size                              : 718 MiB (1%)
  40. Title                                    : DTS-HD MA 1.0
  41. Language                                 : Italian
  42. Default                                  : Yes
  43. Forced                                   : No
  44. Original source medium                   : Blu-ray

  45. Audio #2
  46. ID                                       : 3
  47. Format                                   : AC-3
  48. Format/Info                              : Audio Coding 3
  49. Commercial name                          : Dolby Digital
  50. Codec ID                                 : A_AC3
  51. Duration                                 : 1 h 36 min
  52. Bit rate mode                            : Constant
  53. Bit rate                                 : 640 kb/s
  54. Channel(s)                               : 1 channel
  55. Channel layout                           : C
  56. Sampling rate                            : 48.0 kHz
  57. Frame rate                               : 31.250 FPS (1536 SPF)
  58. Compression mode                         : Lossy
  59. Stream size                              : 443 MiB (1%)
  60. Title                                    : DD 1.0
  61. Language                                 : Italian
  62. Service kind                             : Complete Main
  63. Default                                  : No
  64. Forced                                   : No

  65. Audio #3
  66. ID                                       : 4
  67. ID in the original source medium         : 4352 (0x1100)
  68. Format                                   : DTS XLL
  69. Format/Info                              : Digital Theater Systems
  70. Commercial name                          : DTS-HD Master Audio
  71. Codec ID                                 : A_DTS
  72. Duration                                 : 1 h 36 min
  73. Bit rate mode                            : Variable
  74. Bit rate                                 : 1 036 kb/s
  75. Channel(s)                               : 1 channel
  76. Channel layout                           : C
  77. Sampling rate                            : 48.0 kHz
  78. Frame rate                               : 93.750 FPS (512 SPF)
  79. Bit depth                                : 16 bits
  80. Compression mode                         : Lossless
  81. Stream size                              : 717 MiB (1%)
  82. Title                                    : DTS-HD MA 1.0
  83. Language                                 : English
  84. Default                                  : No
  85. Forced                                   : No
  86. Original source medium                   : Blu-ray

  87. Audio #4
  88. ID                                       : 5
  89. Format                                   : AC-3
  90. Format/Info                              : Audio Coding 3
  91. Commercial name                          : Dolby Digital
  92. Codec ID                                 : A_AC3
  93. Duration                                 : 1 h 36 min
  94. Bit rate mode                            : Constant
  95. Bit rate                                 : 640 kb/s
  96. Channel(s)                               : 1 channel
  97. Channel layout                           : C
  98. Sampling rate                            : 48.0 kHz
  99. Frame rate                               : 31.250 FPS (1536 SPF)
  100. Compression mode                         : Lossy
  101. Stream size                              : 443 MiB (1%)
  102. Title                                    : DD 1.0
  103. Language                                 : English
  104. Service kind                             : Complete Main
  105. Default                                  : No
  106. Forced                                   : No

  107. Text #1
  108. ID                                       : 6
  109. Format                                   : UTF-8
  110. Codec ID                                 : S_TEXT/UTF8
  111. Codec ID/Info                            : UTF-8 Plain Text
  112. Duration                                 : 1 h 34 min
  113. Bit rate                                 : 44 b/s
  114. Count of elements                        : 885
  115. Stream size                              : 31.2 KiB (0%)
  116. Title                                    : English-for-Italian-SRT
  117. Language                                 : English
  118. Default                                  : No
  119. Forced                                   : No

  120. Text #2
  121. ID                                       : 7
  122. Format                                   : UTF-8
  123. Codec ID                                 : S_TEXT/UTF8
  124. Codec ID/Info                            : UTF-8 Plain Text
  125. Duration                                 : 1 h 32 min
  126. Bit rate                                 : 49 b/s
  127. Count of elements                        : 958
  128. Stream size                              : 33.7 KiB (0%)
  129. Title                                    : English-for-DUB-SRT
  130. Language                                 : English
  131. Default                                  : No
  132. Forced                                   : No

  133. Text #3
  134. ID                                       : 8
  135. Format                                   : UTF-8
  136. Codec ID                                 : S_TEXT/UTF8
  137. Codec ID/Info                            : UTF-8 Plain Text
  138. Duration                                 : 18 min 32 s
  139. Bit rate                                 : 1 b/s
  140. Count of elements                        : 4
  141. Stream size                              : 182 Bytes (0%)
  142. Title                                    : English-FORCED-SRT
  143. Language                                 : English
  144. Default                                  : No
  145. Forced                                   : No

  146. Text #4
  147. ID                                       : 9
  148. ID in the original source medium         : 4769 (0x12A1)
  149. Format                                   : PGS
  150. Muxing mode                              : zlib
  151. Codec ID                                 : S_HDMV/PGS
  152. Codec ID/Info                            : Picture based subtitle format used on BDs/HD-DVDs
  153. Duration                                 : 1 h 34 min
  154. Bit rate                                 : 28.2 kb/s
  155. Count of elements                        : 1774
  156. Stream size                              : 19.1 MiB (0%)
  157. Title                                    : English-For-Italian-PGS
  158. Language                                 : English
  159. Default                                  : No
  160. Forced                                   : No
  161. Original source medium                   : Blu-ray

  162. Text #5
  163. ID                                       : 10
  164. ID in the original source medium         : 4768 (0x12A0)
  165. Format                                   : PGS
  166. Muxing mode                              : zlib
  167. Codec ID                                 : S_HDMV/PGS
  168. Codec ID/Info                            : Picture based subtitle format used on BDs/HD-DVDs
  169. Duration                                 : 1 h 34 min
  170. Bit rate                                 : 31.9 kb/s
  171. Count of elements                        : 2136
  172. Stream size                              : 21.6 MiB (0%)
  173. Title                                    : English-For-DUB-PGS
  174. Language                                 : English
  175. Default                                  : No
  176. Forced                                   : No
  177. Original source medium                   : Blu-ray

  178. Text #6
  179. ID                                       : 11
  180. ID in the original source medium         : 4770 (0x12A2)
  181. Format                                   : PGS
  182. Muxing mode                              : zlib
  183. Codec ID                                 : S_HDMV/PGS
  184. Codec ID/Info                            : Picture based subtitle format used on BDs/HD-DVDs
  185. Duration                                 : 1 h 32 min
  186. Bit rate                                 : 216 b/s
  187. Count of elements                        : 10
  188. Stream size                              : 147 KiB (0%)
  189. Title                                    : English-FORCED-PGS
  190. Language                                 : English
  191. Default                                  : No
  192. Forced                                   : No
  193. Original source medium                   : Blu-ray

  194. Menu
  195. 00:00:00.000                             : Chapter 01
  196. 00:08:15.912                             : Chapter 02
  197. 00:16:20.104                             : Chapter 03
  198. 00:22:09.411                             : Chapter 04
  199. 00:29:16.379                             : Chapter 05
  200. 00:41:34.158                             : Chapter 06
  201. 00:48:05.465                             : Chapter 07
  202. 00:56:04.736                             : Chapter 08
  203. 01:05:43.022                             : Chapter 09
  204. 01:13:20.646                             : Chapter 10
  205. 01:19:47.824                             : Chapter 11
  206. 01:30:20.206                             : Chapter 12
复制代码





                                       
                                       

                                       
                                       
                                       




摧花手 The.Bird.with.the.Crystal.Plumage.1970.ITALIAN.2160p.BluRay.x265.10bit.SDR.DTS-HD.MA.1.0-SWTYBLZ 56.13GB

The.Bird.with.the.Crystal.Plumage.1970.ITALIAN.2160p.BluRay.x265.10bit.SDR.DTS-H.torrent

70.95 KB, 下载次数: 2, 下载积分: 蓝光币 -2

回复

使用道具 举报

懒得打字嘛,点击右侧快捷回复 【右侧内容,后台自定义】
您需要登录后才可以回帖 登录 | 立即加入

本版积分规则

小黑屋|蓝光电影网 |网站地图 

GMT+8, 2021-8-2 04:54 , Processed in 0.078282 second(s), 37 queries .

Powered by 蓝光电影网

Copyright © 2021,[蓝光电影网] 举报反馈邮箱:kf4k1080#hotmail.com(#[email protected])

免责声明:本站所有资源均收集自互联网,没有提供影片资源存储,也未参与录制、上传。若本站收录的资源涉及您的版权或知识产权或其他利益,请附上版权证明邮件告知,在收到邮件后24小时内删除。

快速回复 返回顶部 返回列表