蓝光电影网

 找回密码
 立即加入
搜索
查看: 92|回复: 0

[UHD.HEVC] 乱 Ran.1985.JAPANESE.2160p.BluRay.REMUX.HEVC.DTS-HD.MA.5.1-FGT 65.45GB

[复制链接]
蓝光币
159
发表于 2021-7-19 00:29:04 | 显示全部楼层 |阅读模式


◎译  名 Ran/Revolt/乱日本战国时代
◎片  名 乱
◎年  代 1985
◎产  地 日本,法国
◎类  别 剧情 / 动作
◎语  言 日语
◎上映日期 1985-06-01(日本)
◎豆瓣评分 8.9/10 from 68906 users
◎豆瓣链接 https://movie.douban.com/subject/1296196/
◎片  长 162分钟
◎导  演 黑泽明 Akira Kurosawa
◎编  剧 黑泽明 Akira Kurosawa / 小国英雄 Hideo Oguni / 井手雅人 Masato Ide / 威廉·莎士比亚 William Shakespeare
◎主  演 仲代达矢 Tatsuya Nakadai
       寺尾聪 Akira Terao
       根津甚八 Jinpachi Nezu
       隆大介 Daisuke Ry?
       原田美枝子 Mieko Harada
       宫崎美子 Yoshiko Miyazaki
       井川比佐志 Hisashi Igawa
       池畑慎之介 P?ta
       油井昌由树 Masayuki Yui
       加藤和夫 Kazuo Kat?
       松井范雄 Norio Matsui
       伊藤敏八 Toshiya Ito
       儿玉谦次 Kenji Kodama
       野村万斋 Mansai Nomura
       加藤武 Takeshi Kat?
       田崎润 Jun Tazaki
       植木等 Hitoshi Ueki
       头师孝雄 Takao Zushi
       头师佳孝 Yoshitaka Zushi
       天田益男 Masuo Amada
       木村荣 Sakae Kimura
       日比游一 Yuichi Hibi
       加藤精三 Seiz? Kat?
       南條玲子 Reiko Nanjo
       音羽久米子 Kumeko Otowa
       寺岛进 Susumu Terajima
       东乡晴子 Haruko Togo
       渡边哲 Tetsu Watanabe
       宫坂广 Hiroshi Miyasaka
       本多猪四郎  Ishir? Honda
◎标  签 日本 | 战争 | 经典 | 历史 | 武士 | 人性 | 1985 | 剧情
◎简  介


  一文字秀虎(仲代达矢饰)征战多年,手段残忍。在七十岁时,秀虎准备将家业一分为三,由三个儿子分掌大权。他把太郎孝虎(寺尾聪饰)、次郎正虎(根津甚八饰)、三郎直虎(隆大介饰)叫到跟前,以“支箭会断,砚支箭折不断”喻语告诫三兄弟,嘱咐他们要休戚与共。三郎当场把三支箭横在膝上折断,以抗议父亲枉经乱世,而不知人情。秀虎大怒,将三郎驱逐出境。三郎遂到邻国入赘为婿。
  
  而之后一文字家果然被三郎言中,背信弃义的告诫果然成真,父子及兄弟间的纷乱开始,迎接他们的将是什么命运?
◎获奖情况
  第58届奥斯卡金像奖 ?(1986)
  最佳导演(提名) 黑泽明
  最佳摄影(提名) 中井朝一?/?斋藤孝雄?/?上田正治
  最佳艺术指导(提名) 村木忍?/?村木与四郎
  最佳服装设计 和田惠美
  1. Video
  2. ID                                       : 1
  3. ID in the original source medium         : 4113 (0x1011)
  4. Format                                   : HEVC
  5. Format/Info                              : High Efficiency Video Coding
  6. Format profile                           : Main [email protected]@High
  7. HDR format                               : SMPTE ST 2086, HDR10 compatible
  8. Codec ID                                 : V_MPEGH/ISO/HEVC
  9. Duration                                 : 2 h 40 min
  10. Bit rate                                 : 42.4 Mb/s
  11. Width                                    : 3 840 pixels
  12. Height                                   : 2 160 pixels
  13. Display aspect ratio                     : 16:9
  14. Frame rate mode                          : Constant
  15. Frame rate                               : 24.000 FPS
  16. Color space                              : YUV
  17. Chroma subsampling                       : 4:2:0 (Type 2)
  18. Bit depth                                : 10 bits
  19. Bits/(Pixel*Frame)                       : 0.213
  20. Stream size                              : 47.6 GiB (73%)
  21. Language                                 : English
  22. Default                                  : No
  23. Forced                                   : No
  24. Color range                              : Limited
  25. Color primaries                          : BT.2020
  26. Transfer characteristics                 : PQ
  27. Matrix coefficients                      : BT.2020 non-constant
  28. Mastering display color primaries        : BT.2020
  29. Mastering display luminance              : min: 0.0001 cd/m2, max: 1000 cd/m2
  30. Maximum Content Light Level              : 962 cd/m2
  31. Maximum Frame-Average Light Level        : 201 cd/m2
  32. Original source medium                   : Blu-ray
  33. Audio #1
  34. ID                                       : 2
  35. ID in the original source medium         : 4353 (0x1101)
  36. Format                                   : DTS XLL
  37. Format/Info                              : Digital Theater Systems
  38. Commercial name                          : DTS-HD Master Audio
  39. Codec ID                                 : A_DTS
  40. Duration                                 : 2 h 40 min
  41. Bit rate mode                            : Variable
  42. Bit rate                                 : 4 063 kb/s
  43. Channel(s)                               : 6 channels
  44. Channel layout                           : C L R Ls Rs LFE
  45. Sampling rate                            : 48.0 kHz
  46. Frame rate                               : 93.750 FPS (512 SPF)
  47. Bit depth                                : 24 bits
  48. Compression mode                         : Lossless
  49. Stream size                              : 4.56 GiB (7%)
  50. Title                                    : DTS-HD MA 5.1
  51. Language                                 : Japanese
  52. Default                                  : Yes
  53. Forced                                   : No
  54. Original source medium                   : Blu-ray
  55. Audio #2
  56. ID                                       : 3
  57. Format                                   : AC-3
  58. Format/Info                              : Audio Coding 3
  59. Commercial name                          : Dolby Digital
  60. Codec ID                                 : A_AC3
  61. Duration                                 : 2 h 40 min
  62. Bit rate mode                            : Constant
  63. Bit rate                                 : 640 kb/s
  64. Channel(s)                               : 6 channels
  65. Channel layout                           : L R C LFE Ls Rs
  66. Sampling rate                            : 48.0 kHz
  67. Frame rate                               : 31.250 FPS (1536 SPF)
  68. Compression mode                         : Lossy
  69. Stream size                              : 735 MiB (1%)
  70. Title                                    : DD 5.1
  71. Language                                 : Japanese
  72. Service kind                             : Complete Main
  73. Default                                  : No
  74. Forced                                   : No
  75. Audio #3
  76. ID                                       : 4
  77. ID in the original source medium         : 4355 (0x1103)
  78. Format                                   : DTS XLL
  79. Format/Info                              : Digital Theater Systems
  80. Commercial name                          : DTS-HD Master Audio
  81. Codec ID                                 : A_DTS
  82. Duration                                 : 2 h 40 min
  83. Bit rate mode                            : Variable
  84. Bit rate                                 : 3 795 kb/s
  85. Channel(s)                               : 6 channels
  86. Channel layout                           : C L R Ls Rs LFE
  87. Sampling rate                            : 48.0 kHz
  88. Frame rate                               : 93.750 FPS (512 SPF)
  89. Bit depth                                : 24 bits
  90. Compression mode                         : Lossless
  91. Stream size                              : 4.26 GiB (7%)
  92. Title                                    : DTS-HD MA 5.1
  93. Language                                 : English
  94. Default                                  : No
  95. Forced                                   : No
  96. Original source medium                   : Blu-ray
  97. Audio #4
  98. ID                                       : 5
  99. Format                                   : AC-3
  100. Format/Info                              : Audio Coding 3
  101. Commercial name                          : Dolby Digital
  102. Codec ID                                 : A_AC3
  103. Duration                                 : 2 h 40 min
  104. Bit rate mode                            : Constant
  105. Bit rate                                 : 640 kb/s
  106. Channel(s)                               : 6 channels
  107. Channel layout                           : L R C LFE Ls Rs
  108. Sampling rate                            : 48.0 kHz
  109. Frame rate                               : 31.250 FPS (1536 SPF)
  110. Compression mode                         : Lossy
  111. Stream size                              : 735 MiB (1%)
  112. Title                                    : DD 5.1
  113. Language                                 : English
  114. Service kind                             : Complete Main
  115. Default                                  : No
  116. Forced                                   : No
  117. Audio #5
  118. ID                                       : 6
  119. ID in the original source medium         : 4354 (0x1102)
  120. Format                                   : DTS XLL
  121. Format/Info                              : Digital Theater Systems
  122. Commercial name                          : DTS-HD Master Audio
  123. Codec ID                                 : A_DTS
  124. Duration                                 : 2 h 40 min
  125. Bit rate mode                            : Variable
  126. Bit rate                                 : 1 775 kb/s
  127. Channel(s)                               : 2 channels
  128. Channel layout                           : L R
  129. Sampling rate                            : 48.0 kHz
  130. Frame rate                               : 93.750 FPS (512 SPF)
  131. Bit depth                                : 24 bits
  132. Compression mode                         : Lossless
  133. Stream size                              : 1.99 GiB (3%)
  134. Title                                    : DTS-HD MA 2.0
  135. Language                                 : Japanese
  136. Default                                  : No
  137. Forced                                   : No
  138. Original source medium                   : Blu-ray
  139. Audio #6
  140. ID                                       : 7
  141. ID in the original source medium         : 4352 (0x1100)
  142. Format                                   : DTS XLL
  143. Format/Info                              : Digital Theater Systems
  144. Commercial name                          : DTS-HD Master Audio
  145. Codec ID                                 : A_DTS
  146. Duration                                 : 2 h 40 min
  147. Bit rate mode                            : Variable
  148. Bit rate                                 : 1 728 kb/s
  149. Channel(s)                               : 2 channels
  150. Channel layout                           : L R
  151. Sampling rate                            : 48.0 kHz
  152. Frame rate                               : 93.750 FPS (512 SPF)
  153. Bit depth                                : 24 bits
  154. Compression mode                         : Lossless
  155. Stream size                              : 1.94 GiB (3%)
  156. Title                                    : DTS-HD MA 2.0
  157. Language                                 : German
  158. Default                                  : No
  159. Forced                                   : No
  160. Original source medium                   : Blu-ray
  161. Audio #7
  162. ID                                       : 8
  163. ID in the original source medium         : 4356 (0x1104)
  164. Format                                   : DTS XLL
  165. Format/Info                              : Digital Theater Systems
  166. Commercial name                          : DTS-HD Master Audio
  167. Codec ID                                 : A_DTS
  168. Duration                                 : 2 h 40 min
  169. Bit rate mode                            : Variable
  170. Bit rate                                 : 3 287 kb/s
  171. Channel(s)                               : 6 channels
  172. Channel layout                           : C L R Ls Rs LFE
  173. Sampling rate                            : 48.0 kHz
  174. Frame rate                               : 93.750 FPS (512 SPF)
  175. Bit depth                                : 24 bits
  176. Compression mode                         : Lossless
  177. Stream size                              : 3.69 GiB (6%)
  178. Title                                    : DTS-HD MA 5.1
  179. Language                                 : French
  180. Default                                  : No
  181. Forced                                   : No
  182. Original source medium                   : Blu-ray
  183. Text #1
  184. ID                                       : 9
  185. Format                                   : UTF-8
  186. Codec ID                                 : S_TEXT/UTF8
  187. Codec ID/Info                            : UTF-8 Plain Text
  188. Duration                                 : 2 h 35 min
  189. Bit rate                                 : 25 b/s
  190. Count of elements                        : 1239
  191. Stream size                              : 28.7 KiB (0%)
  192. Title                                    : SRT
  193. Language                                 : English
  194. Default                                  : Yes
  195. Forced                                   : No
  196. Text #2
  197. ID                                       : 10
  198. ID in the original source medium         : 4769 (0x12A1)
  199. Format                                   : PGS
  200. Muxing mode                              : zlib
  201. Codec ID                                 : S_HDMV/PGS
  202. Codec ID/Info                            : Picture based subtitle format used on BDs/HD-DVDs
  203. Duration                                 : 2 h 35 min
  204. Bit rate                                 : 16.1 kb/s
  205. Count of elements                        : 2486
  206. Stream size                              : 17.9 MiB (0%)
  207. Language                                 : English
  208. Default                                  : No
  209. Forced                                   : No
  210. Original source medium                   : Blu-ray
  211. Text #3
  212. ID                                       : 11
  213. ID in the original source medium         : 4768 (0x12A0)
  214. Format                                   : PGS
  215. Muxing mode                              : zlib
  216. Codec ID                                 : S_HDMV/PGS
  217. Codec ID/Info                            : Picture based subtitle format used on BDs/HD-DVDs
  218. Duration                                 : 2 h 35 min
  219. Bit rate                                 : 18.4 kb/s
  220. Count of elements                        : 2476
  221. Stream size                              : 20.5 MiB (0%)
  222. Language                                 : German
  223. Default                                  : No
  224. Forced                                   : No
  225. Original source medium                   : Blu-ray
  226. Text #4
  227. ID                                       : 12
  228. ID in the original source medium         : 4770 (0x12A2)
  229. Format                                   : PGS
  230. Muxing mode                              : zlib
  231. Codec ID                                 : S_HDMV/PGS
  232. Codec ID/Info                            : Picture based subtitle format used on BDs/HD-DVDs
  233. Duration                                 : 2 h 37 min
  234. Bit rate                                 : 15.8 kb/s
  235. Count of elements                        : 2526
  236. Stream size                              : 17.8 MiB (0%)
  237. Language                                 : French
  238. Default                                  : No
  239. Forced                                   : No
  240. Original source medium                   : Blu-ray
  241. Text #5
  242. ID                                       : 13
  243. ID in the original source medium         : 4771 (0x12A3)
  244. Format                                   : PGS
  245. Muxing mode                              : zlib
  246. Codec ID                                 : S_HDMV/PGS
  247. Codec ID/Info                            : Picture based subtitle format used on BDs/HD-DVDs
  248. Duration                                 : 53 min 55 s
  249. Bit rate                                 : 512 b/s
  250. Count of elements                        : 18
  251. Stream size                              : 203 KiB (0%)
  252. Title                                    : FORCED
  253. Language                                 : German
  254. Default                                  : No
  255. Forced                                   : No
  256. Original source medium                   : Blu-ray
  257. Text #6
  258. ID                                       : 14
  259. ID in the original source medium         : 4772 (0x12A4)
  260. Format                                   : PGS
  261. Muxing mode                              : zlib
  262. Codec ID                                 : S_HDMV/PGS
  263. Codec ID/Info                            : Picture based subtitle format used on BDs/HD-DVDs
  264. Duration                                 : 7 s 271 ms
  265. Bit rate                                 : 107 kb/s
  266. Count of elements                        : 6
  267. Stream size                              : 95.2 KiB (0%)
  268. Title                                    : FORCED
  269. Language                                 : English
  270. Default                                  : No
  271. Forced                                   : No
  272. Original source medium                   : Blu-ray
  273. Menu
  274. 00:00:00.000                             : Chapter 01
  275. 00:12:09.833                             : Chapter 02
  276. 00:26:00.791                             : Chapter 03
  277. 00:38:47.958                             : Chapter 04
  278. 00:51:34.541                             : Chapter 05
  279. 01:04:10.958                             : Chapter 06
  280. 01:17:57.416                             : Chapter 07
  281. 01:28:56.000                             : Chapter 08
  282. 01:43:53.833                             : Chapter 09
  283. 01:59:30.666                             : Chapter 10
  284. 02:14:42.500                             : Chapter 11
  285. 02:33:02.125                             : Chapter 12
复制代码




                                       
                                       

                                       
                                       
                                       




Ran.1985.JAPANESE.2160p.BluRay.REMUX.HEVC.DTS-HD.MA.5.1-FGT.torrent (82.45 KB)
回复

使用道具 举报

懒得打字嘛,点击右侧快捷回复 【右侧内容,后台自定义】
您需要登录后才可以回帖 登录 | 立即加入

本版积分规则

小黑屋|蓝光电影网 |网站地图 

GMT+8, 2021-8-2 03:20 , Processed in 0.078688 second(s), 37 queries .

Powered by 蓝光电影网

Copyright © 2021,[蓝光电影网] 举报反馈邮箱:kf4k1080#hotmail.com(#[email protected])

免责声明:本站所有资源均收集自互联网,没有提供影片资源存储,也未参与录制、上传。若本站收录的资源涉及您的版权或知识产权或其他利益,请附上版权证明邮件告知,在收到邮件后24小时内删除。

快速回复 返回顶部 返回列表