蓝光电影网

 找回密码
 立即加入
搜索
查看: 69|回复: 0

[2160p] 摧花手 The.Bird.with.the.Crystal.Plumage.1970.ITALIAN.2160p.BluRay.x264.8bit.SDR.DTS-HD.MA.1.0-SWTYBLZ 70.25GB

[复制链接]
蓝光币
159
发表于 2021-7-19 00:29:13 | 显示全部楼层 |阅读模式


◎译  名 摧花手/Bird with the Glass Feathers/The Bird with the Crystal Plumage/水晶鸟
◎片  名 L'uccello dalle piume di cristallo
◎年  代 1970
◎产  地 意大利,西德
◎类  别 悬疑 / 惊悚 / 恐怖
◎语  言 意大利语
◎上映日期 1970-02-19
◎豆瓣评分 6.8/10 from 770 users
◎豆瓣链接 https://movie.douban.com/subject/1305981/
◎片  长 97分钟
◎导  演 达里奥·阿基多 Dario Argento
◎编  剧 达里奥·阿基多 Dario Argento
◎主  演 托尼·穆萨蒂 Tony Musante
       苏茜·肯道尔 Suzy Kendall
       恩里科·玛丽亚·萨莱诺 Enrico Maria Salerno
       埃娃·伦齐 Eva Renzi
       达里奥·阿基多 Dario Argento
       德罗热达·铎洛斯 Rosita Torosh
       卡拉·曼奇尼 Carla Mancini
◎标  签 意大利 | 悬疑 | 惊悚 | DarioArgento | 恐怖 | 1970 | 1970s | 意大利电影
◎简  介


  美国游客山姆隔着美术馆的玻璃窗,瞥见一宗企图谋杀,他的及时出现让凶手逃走了,获救的女子芳名莫尼卡。不久,山姆仿佛受了蛊惑似的对这宗谋杀着了迷,他决定追踪凶手的下落,这自然让他的女友朱丽娅很不快;而同时他和女友也开始接到威胁电话……
  1. Video
  2. ID                                       : 1
  3. Format                                   : AVC
  4. Format/Info                              : Advanced Video Codec
  5. Format profile                           : [email protected]
  6. Format settings                          : CABAC / 5 Ref Frames
  7. Format settings, CABAC                   : Yes
  8. Format settings, Reference frames        : 5 frames
  9. Codec ID                                 : V_MPEG4/ISO/AVC
  10. Duration                                 : 1 h 36 min
  11. Bit rate                                 : 99.9 Mb/s
  12. Width                                    : 3 840 pixels
  13. Height                                   : 1 634 pixels
  14. Display aspect ratio                     : 2.35:1
  15. Frame rate mode                          : Constant
  16. Frame rate                               : 23.976 (24000/1001/189150) FPS
  17. Color space                              : YUV
  18. Chroma subsampling                       : 4:2:0
  19. Bit depth                                : 8 bits
  20. Scan type                                : Progressive
  21. Bits/(Pixel*Frame)                       : 0.664
  22. Stream size                              : 67.5 GiB (97%)
  23. Writing library                          : x264 core 157 r2935 545de2f
  24. Encoding settings                        : cabac=1 / ref=5 / deblock=1:-1:-1 / analyse=0x3:0x113 / me=umh / subme=10 / psy=1 / psy_rd=1.00:0.15 / mixed_ref=1 / me_range=48 / chroma_me=1 / trellis=2 / 8x8dct=1 / cqm=0 / deadzone=21,11 / fast_pskip=1 / chroma_qp_offset=-3 / threads=36 / lookahead_threads=3 / sliced_threads=0 / nr=0 / decimate=0 / interlaced=0 / bluray_compat=0 / constrained_intra=0 / bframes=3 / b_pyramid=2 / b_adapt=2 / b_bias=0 / direct=3 / weightb=1 / open_gop=0 / weightp=2 / keyint=250 / keyint_min=23 / scenecut=40 / intra_refresh=0 / rc_lookahead=50 / rc=crf / mbtree=1 / crf=18.0 / qcomp=0.60 / qpmin=0 / qpmax=69 / qpstep=4 / ip_ratio=1.40 / aq=1:1.00
  25. Default                                  : Yes
  26. Forced                                   : No
  27. Audio #1
  28. ID                                       : 2
  29. ID in the original source medium         : 4353 (0x1101)
  30. Format                                   : DTS XLL
  31. Format/Info                              : Digital Theater Systems
  32. Commercial name                          : DTS-HD Master Audio
  33. Codec ID                                 : A_DTS
  34. Duration                                 : 1 h 36 min
  35. Bit rate mode                            : Variable
  36. Bit rate                                 : 1 038 kb/s
  37. Channel(s)                               : 1 channel
  38. Channel layout                           : C
  39. Sampling rate                            : 48.0 kHz
  40. Frame rate                               : 93.750 FPS (512 SPF)
  41. Bit depth                                : 24 bits
  42. Compression mode                         : Lossless
  43. Stream size                              : 718 MiB (1%)
  44. Title                                    : DTS-HD MA 1.0
  45. Language                                 : Italian
  46. Default                                  : Yes
  47. Forced                                   : No
  48. Original source medium                   : Blu-ray
  49. Audio #2
  50. ID                                       : 3
  51. Format                                   : AC-3
  52. Format/Info                              : Audio Coding 3
  53. Commercial name                          : Dolby Digital
  54. Codec ID                                 : A_AC3
  55. Duration                                 : 1 h 36 min
  56. Bit rate mode                            : Constant
  57. Bit rate                                 : 640 kb/s
  58. Channel(s)                               : 1 channel
  59. Channel layout                           : C
  60. Sampling rate                            : 48.0 kHz
  61. Frame rate                               : 31.250 FPS (1536 SPF)
  62. Compression mode                         : Lossy
  63. Stream size                              : 443 MiB (1%)
  64. Title                                    : DD 1.0
  65. Language                                 : Italian
  66. Service kind                             : Complete Main
  67. Default                                  : No
  68. Forced                                   : No
  69. Audio #3
  70. ID                                       : 4
  71. ID in the original source medium         : 4352 (0x1100)
  72. Format                                   : DTS XLL
  73. Format/Info                              : Digital Theater Systems
  74. Commercial name                          : DTS-HD Master Audio
  75. Codec ID                                 : A_DTS
  76. Duration                                 : 1 h 36 min
  77. Bit rate mode                            : Variable
  78. Bit rate                                 : 1 036 kb/s
  79. Channel(s)                               : 1 channel
  80. Channel layout                           : C
  81. Sampling rate                            : 48.0 kHz
  82. Frame rate                               : 93.750 FPS (512 SPF)
  83. Bit depth                                : 16 bits
  84. Compression mode                         : Lossless
  85. Stream size                              : 717 MiB (1%)
  86. Title                                    : DTS-HD MA 1.0
  87. Language                                 : English
  88. Default                                  : No
  89. Forced                                   : No
  90. Original source medium                   : Blu-ray
  91. Audio #4
  92. ID                                       : 5
  93. Format                                   : AC-3
  94. Format/Info                              : Audio Coding 3
  95. Commercial name                          : Dolby Digital
  96. Codec ID                                 : A_AC3
  97. Duration                                 : 1 h 36 min
  98. Bit rate mode                            : Constant
  99. Bit rate                                 : 640 kb/s
  100. Channel(s)                               : 1 channel
  101. Channel layout                           : C
  102. Sampling rate                            : 48.0 kHz
  103. Frame rate                               : 31.250 FPS (1536 SPF)
  104. Compression mode                         : Lossy
  105. Stream size                              : 443 MiB (1%)
  106. Title                                    : DD 1.0
  107. Language                                 : English
  108. Service kind                             : Complete Main
  109. Default                                  : No
  110. Forced                                   : No
  111. Text #1
  112. ID                                       : 6
  113. Format                                   : UTF-8
  114. Codec ID                                 : S_TEXT/UTF8
  115. Codec ID/Info                            : UTF-8 Plain Text
  116. Duration                                 : 1 h 34 min
  117. Bit rate                                 : 44 b/s
  118. Count of elements                        : 885
  119. Stream size                              : 31.2 KiB (0%)
  120. Title                                    : English-for-Italian-SRT
  121. Language                                 : English
  122. Default                                  : No
  123. Forced                                   : No
  124. Text #2
  125. ID                                       : 7
  126. Format                                   : UTF-8
  127. Codec ID                                 : S_TEXT/UTF8
  128. Codec ID/Info                            : UTF-8 Plain Text
  129. Duration                                 : 1 h 32 min
  130. Bit rate                                 : 49 b/s
  131. Count of elements                        : 958
  132. Stream size                              : 33.7 KiB (0%)
  133. Title                                    : English-for-DUB-SRT
  134. Language                                 : English
  135. Default                                  : No
  136. Forced                                   : No
  137. Text #3
  138. ID                                       : 8
  139. Format                                   : UTF-8
  140. Codec ID                                 : S_TEXT/UTF8
  141. Codec ID/Info                            : UTF-8 Plain Text
  142. Duration                                 : 18 min 32 s
  143. Bit rate                                 : 1 b/s
  144. Count of elements                        : 4
  145. Stream size                              : 182 Bytes (0%)
  146. Title                                    : English-FORCED-SRT
  147. Language                                 : English
  148. Default                                  : No
  149. Forced                                   : No
  150. Text #4
  151. ID                                       : 9
  152. ID in the original source medium         : 4769 (0x12A1)
  153. Format                                   : PGS
  154. Muxing mode                              : zlib
  155. Codec ID                                 : S_HDMV/PGS
  156. Codec ID/Info                            : Picture based subtitle format used on BDs/HD-DVDs
  157. Duration                                 : 1 h 34 min
  158. Bit rate                                 : 28.2 kb/s
  159. Count of elements                        : 1774
  160. Stream size                              : 19.1 MiB (0%)
  161. Title                                    : English-For-Italian-PGS
  162. Language                                 : English
  163. Default                                  : No
  164. Forced                                   : No
  165. Original source medium                   : Blu-ray
  166. Text #5
  167. ID                                       : 10
  168. ID in the original source medium         : 4768 (0x12A0)
  169. Format                                   : PGS
  170. Muxing mode                              : zlib
  171. Codec ID                                 : S_HDMV/PGS
  172. Codec ID/Info                            : Picture based subtitle format used on BDs/HD-DVDs
  173. Duration                                 : 1 h 34 min
  174. Bit rate                                 : 31.9 kb/s
  175. Count of elements                        : 2136
  176. Stream size                              : 21.6 MiB (0%)
  177. Title                                    : English-For-DUB-PGS
  178. Language                                 : English
  179. Default                                  : No
  180. Forced                                   : No
  181. Original source medium                   : Blu-ray
  182. Text #6
  183. ID                                       : 11
  184. ID in the original source medium         : 4770 (0x12A2)
  185. Format                                   : PGS
  186. Muxing mode                              : zlib
  187. Codec ID                                 : S_HDMV/PGS
  188. Codec ID/Info                            : Picture based subtitle format used on BDs/HD-DVDs
  189. Duration                                 : 1 h 32 min
  190. Bit rate                                 : 216 b/s
  191. Count of elements                        : 10
  192. Stream size                              : 147 KiB (0%)
  193. Title                                    : English-FORCED-PGS
  194. Language                                 : English
  195. Default                                  : No
  196. Forced                                   : No
  197. Original source medium                   : Blu-ray
  198. Menu
  199. 00:00:00.000                             : Chapter 01
  200. 00:08:15.912                             : Chapter 02
  201. 00:16:20.104                             : Chapter 03
  202. 00:22:09.411                             : Chapter 04
  203. 00:29:16.379                             : Chapter 05
  204. 00:41:34.158                             : Chapter 06
  205. 00:48:05.465                             : Chapter 07
  206. 00:56:04.736                             : Chapter 08
  207. 01:05:43.022                             : Chapter 09
  208. 01:13:20.646                             : Chapter 10
  209. 01:19:47.824                             : Chapter 11
  210. 01:30:20.206                             : Chapter 12
复制代码





                                       
                                       

                                       
                                       
                                       




摧花手 The.Bird.with.the.Crystal.Plumage.1970.ITALIAN.2160p.BluRay.x264.8bit.SDR.DTS-HD.MA.1.0-SWTYBLZ 70.25GB

The.Bird.with.the.Crystal.Plumage.1970.ITALIAN.2160p.BluRay.x264.8bit.SDR.DTS-HD.torrent

88.58 KB, 下载次数: 0, 下载积分: 蓝光币 -2

回复

使用道具 举报

懒得打字嘛,点击右侧快捷回复 【右侧内容,后台自定义】
您需要登录后才可以回帖 登录 | 立即加入

本版积分规则

小黑屋|蓝光电影网 |网站地图 

GMT+8, 2021-8-2 04:26 , Processed in 0.076548 second(s), 37 queries .

Powered by 蓝光电影网

Copyright © 2021,[蓝光电影网] 举报反馈邮箱:kf4k1080#hotmail.com(#[email protected])

免责声明:本站所有资源均收集自互联网,没有提供影片资源存储,也未参与录制、上传。若本站收录的资源涉及您的版权或知识产权或其他利益,请附上版权证明邮件告知,在收到邮件后24小时内删除。

快速回复 返回顶部 返回列表