蓝光电影网

 找回密码
 立即加入
搜索
查看: 141|回复: 1

[UHD.HEVC] 环形使者/回路杀手 Looper.2012.2160p.BluRay.REMUX.HEVC.DTS-HD.MA.5.1-FGT 74.01GB

[复制链接]
蓝光币
159
发表于 2021-7-19 18:04:15 | 显示全部楼层 |阅读模式


◎译  名 环形使者/回路杀手(台)/时凶猎杀(港)
◎片  名 Looper
◎年  代 2012
◎产  地 美国,中国大陆
◎类  别 动作 / 科幻 / 惊悚
◎语  言 英语,法语,汉语普通话
◎上映日期 2012-09-06(多伦多电影节) / 2012-09-28(美国/中国大陆)
◎豆瓣评分 6.9/10 from 156715 users
◎豆瓣链接 https://movie.douban.com/subject/3179706/
◎片  长 110分钟(中国大陆)
◎导  演 莱恩·约翰逊 Rian Johnson
◎编  剧 莱恩·约翰逊 Rian Johnson
◎主  演 约瑟夫·高登-莱维特 Joseph Gordon-Levitt
       布鲁斯·威利斯 Bruce Willis
       艾米莉·布朗特 Emily Blunt
       保罗·达诺 Paul Dano
       皮尔斯·加格农 Pierce Gagnon
       杰夫·丹尼尔斯 Jeff Daniels
       许晴 Qing Xu
       贾里德·德帕斯夸尔 Jared DePasquale
       大卫·詹森 David Jensen
       科迪·伍德 Cody Wood
       詹姆斯·兰德里·赫伯特 James Landry Hébert
       派珀·佩拉博 Piper Perabo
       诺阿·西甘 Noah Segan
       加瑞特·迪拉胡特 Garret Dillahunt
       尼克·戈麦斯 Nick Gomez
       杰夫·蔡斯 Jeff Chase
       伊恩·帕特里克 Ian Patrick
       马库斯 · 赫斯特 Marcus Hester
       乔恩·阿兹 Jon Eyez
       翠茜·索姆斯 Tracie Thoms
       姜广涛 Guangtao Jiang
◎标  签 科幻 | 美国 | 穿越 | 时空 | 动作 | 2012 | 剧情 | 犯罪
◎简  介


  未来,2044年。时间旅行从被发明的一开始就属于非法,只有当黑帮组织想清理某个特定对象、又不愿意在此世界留下任何痕迹时,才会出动“环形使者”。他们专门负责处决那些被时间传送回彼世界的目标。之所以称为“环形使者”,因为他们最终必须杀死未来的自己——这样才不会给未来主顾留下任何的麻烦。这个过程被称为“封环”。杀手乔(约瑟夫·高登-莱维特 Joseph Gordon-Levitt 饰)是最年轻的环形使者,弹无虚发,然而当他想处决来自未来的自己(布鲁斯·威利斯 Bruce Willis 饰)时,却遭到激烈反抗而失手。老年乔希望杀死未来封环计划中的关键人物——唤雨师,从而改变妻子(许晴 饰)的命运;青年乔在追杀过程中遇到了农场单亲妈妈莎拉(艾米莉·布朗特 Emily Blunt 饰),意外的成为了一对母子的保护人。两个版本的乔在这场改变未来(和现在)的豪赌中各出奇谋,上演了自我的巅峰对决......
◎获奖情况
  第84届美国国家评论协会奖 ?(2013)
  最佳原创剧本 莱恩·约翰逊
  年度佳片
  
  第18届美国评论家选择电影奖 ?(2013)
  最佳动作片(提名)
  动作片最佳男主角(提名) 约瑟夫·高登-莱维特
  动作片最佳女主角(提名) 艾米莉·布朗特
  最佳科幻/恐怖片
  最佳原创剧本(提名) 莱恩·约翰逊
  
  第11届华盛顿影评人协会奖 ?(2012)
  最佳原创剧本 莱恩·约翰逊
  
  第25届芝加哥影评人协会奖 ?(2012)
  最佳女配角(提名) 艾米莉·布朗特
  最佳原创剧本(提名) 莱恩·约翰逊
  
  第12届凤凰城影评人协会奖 ?(2012)
  最佳特技表演(提名)
  1. Video
  2. ID                                       : 1
  3. ID in the original source medium         : 4113 (0x1011)
  4. Format                                   : HEVC
  5. Format/Info                              : High Efficiency Video Coding
  6. Format profile                           : Main [email protected]@High
  7. HDR format                               : SMPTE ST 2094 App 4, Version 1, HDR10+ Profile B compatible
  8. Codec ID                                 : V_MPEGH/ISO/HEVC
  9. Duration                                 : 1 h 58 min
  10. Bit rate                                 : 81.6 Mb/s
  11. Width                                    : 3 840 pixels
  12. Height                                   : 2 160 pixels
  13. Display aspect ratio                     : 16:9
  14. Frame rate mode                          : Constant
  15. Frame rate                               : 23.976 (24000/1001/189150) FPS
  16. Color space                              : YUV
  17. Chroma subsampling                       : 4:2:0 (Type 2)
  18. Bit depth                                : 10 bits
  19. Bits/(Pixel*Frame)                       : 0.411
  20. Stream size                              : 67.7 GiB (91%)
  21. Language                                 : English
  22. Default                                  : No
  23. Forced                                   : No
  24. Color range                              : Limited
  25. Color primaries                          : BT.2020
  26. Transfer characteristics                 : PQ
  27. Matrix coefficients                      : BT.2020 non-constant
  28. Mastering display color primaries        : Display P3
  29. Mastering display luminance              : min: 0.0001 cd/m2, max: 1000 cd/m2
  30. Maximum Content Light Level              : 1692 cd/m2
  31. Maximum Frame-Average Light Level        : 732 cd/m2
  32. Original source medium                   : Blu-ray
  33. Audio #1
  34. ID                                       : 2
  35. ID in the original source medium         : 4352 (0x1100)
  36. Format                                   : DTS XLL
  37. Format/Info                              : Digital Theater Systems
  38. Commercial name                          : DTS-HD Master Audio
  39. Codec ID                                 : A_DTS
  40. Duration                                 : 1 h 58 min
  41. Bit rate mode                            : Variable
  42. Bit rate                                 : 2 397 kb/s
  43. Channel(s)                               : 6 channels
  44. Channel layout                           : C L R Ls Rs LFE
  45. Sampling rate                            : 48.0 kHz
  46. Frame rate                               : 93.750 FPS (512 SPF)
  47. Bit depth                                : 16 bits
  48. Compression mode                         : Lossless
  49. Stream size                              : 1.99 GiB (3%)
  50. Title                                    : DTS-HD MA 5.1
  51. Language                                 : English
  52. Default                                  : Yes
  53. Forced                                   : No
  54. Original source medium                   : Blu-ray
  55. Audio #2
  56. ID                                       : 3
  57. Format                                   : AC-3
  58. Format/Info                              : Audio Coding 3
  59. Commercial name                          : Dolby Digital
  60. Codec ID                                 : A_AC3
  61. Duration                                 : 1 h 58 min
  62. Bit rate mode                            : Constant
  63. Bit rate                                 : 640 kb/s
  64. Channel(s)                               : 6 channels
  65. Channel layout                           : L R C LFE Ls Rs
  66. Sampling rate                            : 48.0 kHz
  67. Frame rate                               : 31.250 FPS (1536 SPF)
  68. Compression mode                         : Lossy
  69. Stream size                              : 543 MiB (1%)
  70. Title                                    : DD 5.1
  71. Language                                 : English
  72. Service kind                             : Complete Main
  73. Default                                  : No
  74. Forced                                   : No
  75. Audio #3
  76. ID                                       : 4
  77. ID in the original source medium         : 4353 (0x1101)
  78. Format                                   : PCM
  79. Format settings                          : Little / Signed
  80. Codec ID                                 : A_PCM/INT/LIT
  81. Duration                                 : 1 h 58 min
  82. Bit rate mode                            : Constant
  83. Bit rate                                 : 2 304 kb/s
  84. Channel(s)                               : 2 channels
  85. Sampling rate                            : 48.0 kHz
  86. Frame rate                               : 30.000 FPS (1600 SPF)
  87. Bit depth                                : 24 bits
  88. Stream size                              : 1.91 GiB (3%)
  89. Title                                    : LPCM 2.0
  90. Language                                 : English
  91. Default                                  : No
  92. Forced                                   : No
  93. Original source medium                   : Blu-ray
  94. Audio #4
  95. ID                                       : 5
  96. ID in the original source medium         : 4354 (0x1102)
  97. Format                                   : PCM
  98. Format settings                          : Little / Signed
  99. Codec ID                                 : A_PCM/INT/LIT
  100. Duration                                 : 1 h 58 min
  101. Bit rate mode                            : Constant
  102. Bit rate                                 : 2 304 kb/s
  103. Channel(s)                               : 2 channels
  104. Sampling rate                            : 48.0 kHz
  105. Frame rate                               : 30.000 FPS (1600 SPF)
  106. Bit depth                                : 24 bits
  107. Stream size                              : 1.91 GiB (3%)
  108. Title                                    : LPCM 2.0
  109. Language                                 : English
  110. Default                                  : No
  111. Forced                                   : No
  112. Original source medium                   : Blu-ray
  113. Text #1
  114. ID                                       : 6
  115. Format                                   : UTF-8
  116. Codec ID                                 : S_TEXT/UTF8
  117. Codec ID/Info                            : UTF-8 Plain Text
  118. Duration                                 : 1 h 52 min
  119. Bit rate                                 : 40 b/s
  120. Count of elements                        : 1002
  121. Stream size                              : 33.6 KiB (0%)
  122. Title                                    : English-SRT
  123. Language                                 : English
  124. Default                                  : Yes
  125. Forced                                   : No
  126. Text #2
  127. ID                                       : 7
  128. ID in the original source medium         : 4768 (0x12A0)
  129. Format                                   : PGS
  130. Muxing mode                              : zlib
  131. Codec ID                                 : S_HDMV/PGS
  132. Codec ID/Info                            : Picture based subtitle format used on BDs/HD-DVDs
  133. Duration                                 : 1 h 52 min
  134. Bit rate                                 : 28.7 kb/s
  135. Count of elements                        : 2258
  136. Stream size                              : 23.1 MiB (0%)
  137. Title                                    : English-PGS
  138. Language                                 : English
  139. Default                                  : No
  140. Forced                                   : No
  141. Original source medium                   : Blu-ray
  142. Menu
  143. 00:00:00.000                             : Chapter 01
  144. 00:04:11.084                             : Chapter 02
  145. 00:10:24.582                             : Chapter 03
  146. 00:21:10.602                             : Chapter 04
  147. 00:25:47.337                             : Chapter 05
  148. 00:31:39.272                             : Chapter 06
  149. 00:36:39.155                             : Chapter 07
  150. 00:41:35.117                             : Chapter 08
  151. 00:52:11.628                             : Chapter 09
  152. 00:57:12.512                             : Chapter 10
  153. 01:01:42.990                             : Chapter 11
  154. 01:07:57.782                             : Chapter 12
  155. 01:12:54.787                             : Chapter 13
  156. 01:18:13.605                             : Chapter 14
  157. 01:23:46.146                             : Chapter 15
  158. 01:31:35.198                             : Chapter 16
  159. 01:34:16.525                             : Chapter 17
  160. 01:37:06.570                             : Chapter 18
  161. 01:40:52.504                             : Chapter 19
  162. 01:50:53.313                             : Chapter 20
复制代码




                                       
                                       

                                       
                                       
                                       




Looper.2012.2160p.BluRay.REMUX.HEVC.DTS-HD.MA.5.1-FGT.torrent (93.14 KB)
回复

使用道具 举报

蓝光币
10
发表于 2021-7-19 21:34:46 | 显示全部楼层
我爱高清一如既往
回复 支持 反对

使用道具 举报

懒得打字嘛,点击右侧快捷回复 【右侧内容,后台自定义】
您需要登录后才可以回帖 登录 | 立即加入

本版积分规则

小黑屋|蓝光电影网 |网站地图 

GMT+8, 2021-8-2 03:31 , Processed in 0.080655 second(s), 37 queries .

Powered by 蓝光电影网

Copyright © 2021,[蓝光电影网] 举报反馈邮箱:kf4k1080#hotmail.com(#[email protected])

免责声明:本站所有资源均收集自互联网,没有提供影片资源存储,也未参与录制、上传。若本站收录的资源涉及您的版权或知识产权或其他利益,请附上版权证明邮件告知,在收到邮件后24小时内删除。

快速回复 返回顶部 返回列表