蓝光电影网

 找回密码
 立即加入
搜索
查看: 113|回复: 2

[2160p] 然后怎样 How.it.Ends.2021.2160p.WEB-DL.x265.10bit.SDR.DDP5.1-NOGRP 12.41GB

[复制链接]
蓝光币
159
发表于 2021-7-20 21:07:24 | 显示全部楼层 |阅读模式


◎译  名 然后怎样
◎片  名 How It Ends
◎年  代 2021
◎产  地 美国
◎类  别 
◎上映日期 2021-01-29(圣丹斯电影节) / 2021-07-20(美国)
◎豆瓣评分 /10 from 0 users
◎豆瓣链接 https://movie.douban.com/subject/35288795/
◎导  演 达瑞尔·韦恩 Daryl Wein
◎编  剧 佐伊·利斯特·琼斯 Zoe Lister Jones
◎主  演 弗莱德·阿米森 Fred Armisen
       卡莉·史派妮 Cailee Spaeny
       拉蒙尼·莫里斯 Lamorne Morris
       佐伊·利斯特·琼斯 Zoe Lister Jones
◎标  签 喜剧 | Zoe_Lister-Jones | WK | Sundance2021 | Daryl_Wein
◎简  介


  On the last day on Earth, one woman goes on a journey through LA to make it to her last party before the world ends, running into an eclectic cast of characters along the way.
  1. Video
  2. ID                                       : 1
  3. Format                                   : HEVC
  4. Format/Info                              : High Efficiency Video Coding
  5. Format profile                           : Main [email protected]@High
  6. Codec ID                                 : V_MPEGH/ISO/HEVC
  7. Duration                                 : 1 h 23 min
  8. Bit rate                                 : 20.7 Mb/s
  9. Width                                    : 3 832 pixels
  10. Height                                   : 2 152 pixels
  11. Display aspect ratio                     : 16:9
  12. Frame rate mode                          : Constant
  13. Frame rate                               : 23.976 FPS
  14. Color space                              : YUV
  15. Chroma subsampling                       : 4:2:0
  16. Bit depth                                : 10 bits
  17. Bits/(Pixel*Frame)                       : 0.105
  18. Stream size                              : 12.0 GiB (97%)
  19. Default                                  : Yes
  20. Forced                                   : No
  21. Color range                              : Limited
  22. Color primaries                          : BT.709
  23. Transfer characteristics                 : BT.709
  24. Matrix coefficients                      : BT.709

  25. Audio
  26. ID                                       : 2
  27. Format                                   : E-AC-3
  28. Format/Info                              : Enhanced AC-3
  29. Commercial name                          : Dolby Digital Plus
  30. Codec ID                                 : A_EAC3
  31. Duration                                 : 1 h 23 min
  32. Bit rate mode                            : Constant
  33. Bit rate                                 : 640 kb/s
  34. Channel(s)                               : 6 channels
  35. Channel layout                           : L R C LFE Ls Rs
  36. Sampling rate                            : 48.0 kHz
  37. Frame rate                               : 31.250 FPS (1536 SPF)
  38. Compression mode                         : Lossy
  39. Stream size                              : 380 MiB (3%)
  40. Language                                 : English
  41. Service kind                             : Complete Main
  42. Default                                  : Yes
  43. Forced                                   : No

  44. Text
  45. ID                                       : 3
  46. Format                                   : UTF-8
  47. Codec ID                                 : S_TEXT/UTF8
  48. Codec ID/Info                            : UTF-8 Plain Text
  49. Duration                                 : 1 h 19 min
  50. Bit rate                                 : 84 b/s
  51. Count of elements                        : 1556
  52. Stream size                              : 49.0 KiB (0%)
  53. Title                                    : English
  54. Language                                 : English
  55. Default                                  : No
  56. Forced                                   : No
复制代码




                                       
                                       

                                       
                                       
                                       




How.it.Ends.2021.2160p.WEB-DL.x265.10bit.SDR.DDP5.1-NOGRP.torrent (16.16 KB)
回复

使用道具 举报

蓝光币
31
发表于 2021-7-22 18:12:33 | 显示全部楼层

楼主太厉害了!楼主,电影应该很好看我觉得蓝光电影网真是个好地方!
回复 支持 反对

使用道具 举报

蓝光币
303
发表于 2021-7-22 20:06:35 | 显示全部楼层

这个帖子不回对不起自己!我想我是一天也不能离开蓝光电影网。
回复 支持 反对

使用道具 举报

懒得打字嘛,点击右侧快捷回复 【右侧内容,后台自定义】
您需要登录后才可以回帖 登录 | 立即加入

本版积分规则

小黑屋|蓝光电影网 |网站地图 

GMT+8, 2021-8-2 03:24 , Processed in 0.075569 second(s), 37 queries .

Powered by 蓝光电影网

Copyright © 2021,[蓝光电影网] 举报反馈邮箱:kf4k1080#hotmail.com(#[email protected])

免责声明:本站所有资源均收集自互联网,没有提供影片资源存储,也未参与录制、上传。若本站收录的资源涉及您的版权或知识产权或其他利益,请附上版权证明邮件告知,在收到邮件后24小时内删除。

快速回复 返回顶部 返回列表