蓝光电影网

 找回密码
 立即加入
搜索
查看: 135|回复: 0

[2160p] 乱 Ran.1985.JAPANESE.2160p.UHD.BluRay.x265.10bit.HDR.DTS-HD.MA.5.1-SURCODE 40.61GB

[复制链接]
蓝光币
159
发表于 2021-7-20 21:07:30 | 显示全部楼层 |阅读模式


◎译  名 Ran/Revolt/乱日本战国时代
◎片  名 乱
◎年  代 1985
◎产  地 日本,法国
◎类  别 剧情 / 动作
◎语  言 日语
◎上映日期 1985-06-01(日本)
◎豆瓣评分 8.9/10 from 68961 users
◎豆瓣链接 https://movie.douban.com/subject/1296196/
◎片  长 162分钟
◎导  演 黑泽明 Akira Kurosawa
◎编  剧 黑泽明 Akira Kurosawa / 小国英雄 Hideo Oguni / 井手雅人 Masato Ide / 威廉·莎士比亚 William Shakespeare
◎主  演 仲代达矢 Tatsuya Nakadai
       寺尾聪 Akira Terao
       根津甚八 Jinpachi Nezu
       隆大介 Daisuke Ry?
       原田美枝子 Mieko Harada
       宫崎美子 Yoshiko Miyazaki
       井川比佐志 Hisashi Igawa
       池畑慎之介 P?ta
       油井昌由树 Masayuki Yui
       加藤和夫 Kazuo Kat?
       松井范雄 Norio Matsui
       伊藤敏八 Toshiya Ito
       儿玉谦次 Kenji Kodama
       野村万斋 Mansai Nomura
       加藤武 Takeshi Kat?
       田崎润 Jun Tazaki
       植木等 Hitoshi Ueki
       头师孝雄 Takao Zushi
       头师佳孝 Yoshitaka Zushi
       天田益男 Masuo Amada
       木村荣 Sakae Kimura
       日比游一 Yuichi Hibi
       加藤精三 Seiz? Kat?
       南條玲子 Reiko Nanjo
       音羽久米子 Kumeko Otowa
       寺岛进 Susumu Terajima
       东乡晴子 Haruko Togo
       渡边哲 Tetsu Watanabe
       宫坂广 Hiroshi Miyasaka
       本多猪四郎  Ishir? Honda
◎标  签 日本 | 战争 | 经典 | 历史 | 武士 | 人性 | 1985 | 剧情
◎简  介


  一文字秀虎(仲代达矢饰)征战多年,手段残忍。在七十岁时,秀虎准备将家业一分为三,由三个儿子分掌大权。他把太郎孝虎(寺尾聪饰)、次郎正虎(根津甚八饰)、三郎直虎(隆大介饰)叫到跟前,以“支箭会断,砚支箭折不断”喻语告诫三兄弟,嘱咐他们要休戚与共。三郎当场把三支箭横在膝上折断,以抗议父亲枉经乱世,而不知人情。秀虎大怒,将三郎驱逐出境。三郎遂到邻国入赘为婿。
  
  而之后一文字家果然被三郎言中,背信弃义的告诫果然成真,父子及兄弟间的纷乱开始,迎接他们的将是什么命运?
◎获奖情况
  第58届奥斯卡金像奖 ?(1986)
  最佳导演(提名) 黑泽明
  最佳摄影(提名) 中井朝一?/?斋藤孝雄?/?上田正治
  最佳艺术指导(提名) 村木忍?/?村木与四郎
  最佳服装设计 和田惠美
  1. Video
  2. ID                                       : 1
  3. Format                                   : HEVC
  4. Format/Info                              : High Efficiency Video Coding
  5. Format profile                           : Main [email protected]@High
  6. HDR format                               : SMPTE ST 2086, HDR10 compatible
  7. Codec ID                                 : V_MPEGH/ISO/HEVC
  8. Duration                                 : 2 h 40 min
  9. Bit rate                                 : 28.1 Mb/s
  10. Width                                    : 3 840 pixels
  11. Height                                   : 2 080 pixels
  12. Display aspect ratio                     : 1.85:1
  13. Frame rate mode                          : Constant
  14. Frame rate                               : 24.000 FPS
  15. Color space                              : YUV
  16. Chroma subsampling                       : 4:2:0 (Type 2)
  17. Bit depth                                : 10 bits
  18. Bits/(Pixel*Frame)                       : 0.147
  19. Stream size                              : 31.5 GiB (78%)
  20. Writing library                          : x265 3.5bf91444e0:[Windows][MSVC 1900][64 bit] 10bit
  21. Encoding settings                        : cpuid=1111039 / frame-threads=6 / numa-pools=32 / wpp / no-pmode / no-pme / no-psnr / no-ssim / log-level=2 / input-csp=1 / input-res=3840x2080 / interlace=0 / total-frames=231212 / level-idc=51 / high-tier=1 / uhd-bd=0 / ref=4 / no-allow-non-conformance / repeat-headers / annexb / aud / no-eob / no-eos / hrd / info / hash=0 / no-temporal-layers / no-open-gop / min-keyint=24 / keyint=250 / gop-lookahead=0 / bframes=4 / b-adapt=2 / b-pyramid / bframe-bias=0 / rc-lookahead=25 / lookahead-slices=4 / scenecut=40 / hist-scenecut=0 / radl=0 / no-splice / no-intra-refresh / ctu=64 / min-cu-size=8 / rect / no-amp / max-tu-size=32 / tu-inter-depth=1 / tu-intra-depth=1 / limit-tu=0 / rdoq-level=2 / dynamic-rd=0.00 / no-ssim-rd / signhide / no-tskip / nr-intra=0 / nr-inter=0 / no-constrained-intra / no-strong-intra-smoothing / max-merge=3 / limit-refs=3 / limit-modes / me=3 / subme=3 / merange=57 / temporal-mvp / no-frame-dup / no-hme / weightp / no-weightb / no-analyze-src-pics / deblock=-3:-3 / no-sao / no-sao-non-deblock / rd=4 / selective-sao=0 / no-early-skip / rskip / no-fast-intra / no-tskip-fast / no-cu-lossless / no-b-intra / no-splitrd-skip / rdpenalty=0 / psy-rd=2.00 / psy-rdoq=1.00 / no-rd-refine / no-lossless / cbqpoffs=0 / crqpoffs=0 / rc=crf / crf=19.0 / qcomp=0.60 / qpstep=4 / stats-write=0 / stats-read=0 / vbv-maxrate=160000 / vbv-bufsize=160000 / vbv-init=0.9 / min-vbv-fullness=50.0 / max-vbv-fullness=80.0 / crf-max=0.0 / crf-min=0.0 / ipratio=1.40 / pbratio=1.30 / aq-mode=2 / aq-strength=1.00 / cutree / zone-count=0 / no-strict-cbr / qg-size=32 / no-rc-grain / qpmax=69 / qpmin=0 / no-const-vbv / sar=1 / overscan=0 / videoformat=5 / range=0 / colorprim=9 / transfer=16 / colormatrix=9 / chromaloc=1 / chromaloc-top=2 / chromaloc-bottom=2 / display-window=0 / master-display=G(8500,39850)B(6550,2300)R(35400,14600)WP(15635,16450)L(10000000,01) / cll=962,201 / min-luma=0 / max-luma=1023 / log2-max-poc-lsb=8 / vui-timing-info / vui-hrd-info / slices=1 / no-opt-qp-pps / no-opt-ref-list-length-pps / no-multi-pass-opt-rps / scenecut-bias=0.05 / hist-threshold=0.03 / no-opt-cu-delta-qp / no-aq-motion / hdr10 / hdr10-opt / no-dhdr10-opt / no-idr-recovery-sei / analysis-reuse-level=0 / analysis-save-reuse-level=0 / analysis-load-reuse-level=0 / scale-factor=0 / refine-intra=0 / refine-inter=0 / refine-mv=1 / refine-ctu-distortion=0 / no-limit-sao / ctu-info=0 / no-lowpass-dct / refine-analysis-type=0 / copy-pic=1 / max-ausize-factor=1.0 / no-dynamic-refine / no-single-sei / no-hevc-aq / no-svt / no-field / qp-adaptation-range=1.00 / scenecut-aware-qp=0conformance-window-offsets / right=0 / bottom=0 / decoder-max-rate=0 / no-vbv-live-multi-pass
  22. Language                                 : English
  23. Default                                  : Yes
  24. Forced                                   : No
  25. Color range                              : Limited
  26. Color primaries                          : BT.2020
  27. Transfer characteristics                 : PQ
  28. Matrix coefficients                      : BT.2020 non-constant
  29. Mastering display color primaries        : BT.2020
  30. Mastering display luminance              : min: 0.0001 cd/m2, max: 1000 cd/m2
  31. Maximum Content Light Level              : 962 cd/m2
  32. Maximum Frame-Average Light Level        : 201 cd/m2

  33. Audio #1
  34. ID                                       : 2
  35. Format                                   : DTS XLL
  36. Format/Info                              : Digital Theater Systems
  37. Commercial name                          : DTS-HD Master Audio
  38. Codec ID                                 : A_DTS
  39. Duration                                 : 2 h 40 min
  40. Bit rate mode                            : Variable
  41. Bit rate                                 : 4 063 kb/s
  42. Channel(s)                               : 6 channels
  43. Channel layout                           : C L R Ls Rs LFE
  44. Sampling rate                            : 48.0 kHz
  45. Frame rate                               : 93.750 FPS (512 SPF)
  46. Bit depth                                : 24 bits
  47. Compression mode                         : Lossless
  48. Stream size                              : 4.56 GiB (11%)
  49. Title                                    : Japanese
  50. Language                                 : Japanese
  51. Default                                  : Yes
  52. Forced                                   : No

  53. Audio #2
  54. ID                                       : 3
  55. Format                                   : DTS XLL
  56. Format/Info                              : Digital Theater Systems
  57. Commercial name                          : DTS-HD Master Audio
  58. Codec ID                                 : A_DTS
  59. Duration                                 : 2 h 40 min
  60. Bit rate mode                            : Variable
  61. Bit rate                                 : 3 795 kb/s
  62. Channel(s)                               : 6 channels
  63. Channel layout                           : C L R Ls Rs LFE
  64. Sampling rate                            : 48.0 kHz
  65. Frame rate                               : 93.750 FPS (512 SPF)
  66. Bit depth                                : 24 bits
  67. Compression mode                         : Lossless
  68. Stream size                              : 4.26 GiB (11%)
  69. Title                                    : English Dubbed
  70. Language                                 : English
  71. Default                                  : No
  72. Forced                                   : No

  73. Text #1
  74. ID                                       : 4
  75. Format                                   : UTF-8
  76. Codec ID                                 : S_TEXT/UTF8
  77. Codec ID/Info                            : UTF-8 Plain Text
  78. Duration                                 : 7 s 250 ms
  79. Bit rate                                 : 176 b/s
  80. Count of elements                        : 3
  81. Stream size                              : 160 Bytes (0%)
  82. Title                                    : English Forced
  83. Language                                 : English
  84. Default                                  : No
  85. Forced                                   : Yes

  86. Text #2
  87. ID                                       : 5
  88. Format                                   : UTF-8
  89. Codec ID                                 : S_TEXT/UTF8
  90. Codec ID/Info                            : UTF-8 Plain Text
  91. Duration                                 : 2 h 32 min
  92. Bit rate                                 : 25 b/s
  93. Count of elements                        : 1240
  94. Stream size                              : 28.7 KiB (0%)
  95. Title                                    : English
  96. Language                                 : English
  97. Default                                  : Yes
  98. Forced                                   : No

  99. Text #3
  100. ID                                       : 6
  101. Format                                   : PGS
  102. Muxing mode                              : zlib
  103. Codec ID                                 : S_HDMV/PGS
  104. Codec ID/Info                            : Picture based subtitle format used on BDs/HD-DVDs
  105. Duration                                 : 7 s 250 ms
  106. Bit rate                                 : 108 kb/s
  107. Count of elements                        : 6
  108. Stream size                              : 95.2 KiB (0%)
  109. Title                                    : English Forced
  110. Language                                 : English
  111. Default                                  : No
  112. Forced                                   : No

  113. Text #4
  114. ID                                       : 7
  115. Format                                   : PGS
  116. Muxing mode                              : zlib
  117. Codec ID                                 : S_HDMV/PGS
  118. Codec ID/Info                            : Picture based subtitle format used on BDs/HD-DVDs
  119. Duration                                 : 2 h 35 min
  120. Bit rate                                 : 16.1 kb/s
  121. Count of elements                        : 2486
  122. Stream size                              : 17.9 MiB (0%)
  123. Title                                    : English
  124. Language                                 : English
  125. Default                                  : No
  126. Forced                                   : No

  127. Text #5
  128. ID                                       : 8
  129. Format                                   : PGS
  130. Muxing mode                              : zlib
  131. Codec ID                                 : S_HDMV/PGS
  132. Codec ID/Info                            : Picture based subtitle format used on BDs/HD-DVDs
  133. Duration                                 : 2 h 37 min
  134. Bit rate                                 : 15.8 kb/s
  135. Count of elements                        : 2526
  136. Stream size                              : 17.8 MiB (0%)
  137. Title                                    : French
  138. Language                                 : French
  139. Default                                  : No
  140. Forced                                   : No

  141. Text #6
  142. ID                                       : 9
  143. Format                                   : PGS
  144. Muxing mode                              : zlib
  145. Codec ID                                 : S_HDMV/PGS
  146. Codec ID/Info                            : Picture based subtitle format used on BDs/HD-DVDs
  147. Duration                                 : 2 h 35 min
  148. Bit rate                                 : 18.4 kb/s
  149. Count of elements                        : 2476
  150. Stream size                              : 20.5 MiB (0%)
  151. Title                                    : German
  152. Language                                 : German
  153. Default                                  : No
  154. Forced                                   : No

  155. Text #7
  156. ID                                       : 10
  157. Format                                   : PGS
  158. Muxing mode                              : zlib
  159. Codec ID                                 : S_HDMV/PGS
  160. Codec ID/Info                            : Picture based subtitle format used on BDs/HD-DVDs
  161. Duration                                 : 53 min 55 s
  162. Bit rate                                 : 512 b/s
  163. Count of elements                        : 18
  164. Stream size                              : 203 KiB (0%)
  165. Title                                    : German Forced
  166. Language                                 : German
  167. Default                                  : No
  168. Forced                                   : No

  169. Menu
  170. 00:00:00.000                             : en:Chapter 01
  171. 00:12:09.833                             : en:Chapter 02
  172. 00:26:00.791                             : en:Chapter 03
  173. 00:38:47.958                             : en:Chapter 04
  174. 00:51:34.541                             : en:Chapter 05
  175. 01:04:10.958                             : en:Chapter 06
  176. 01:17:57.416                             : en:Chapter 07
  177. 01:28:56.000                             : en:Chapter 08
  178. 01:43:53.833                             : en:Chapter 09
  179. 01:59:30.666                             : en:Chapter 10
  180. 02:14:42.500                             : en:Chapter 11
  181. 02:33:02.125                             : en:Chapter 12
复制代码




                                       
                                       

                                       
                                       
                                       




Ran.1985.JAPANESE.2160p.UHD.BluRay.x265.10bit.HDR.DTS-HD.MA.5.1-SURCODE.torrent (51.51 KB)
回复

使用道具 举报

懒得打字嘛,点击右侧快捷回复 【右侧内容,后台自定义】
您需要登录后才可以回帖 登录 | 立即加入

本版积分规则

小黑屋|蓝光电影网 |网站地图 

GMT+8, 2021-8-2 03:58 , Processed in 0.083186 second(s), 37 queries .

Powered by 蓝光电影网

Copyright © 2021,[蓝光电影网] 举报反馈邮箱:kf4k1080#hotmail.com(#[email protected])

免责声明:本站所有资源均收集自互联网,没有提供影片资源存储,也未参与录制、上传。若本站收录的资源涉及您的版权或知识产权或其他利益,请附上版权证明邮件告知,在收到邮件后24小时内删除。

快速回复 返回顶部 返回列表