找回密码

蓝光电影网

查看: 3530|回复: 6

[美国][科幻][2014][星际穿越/星际效应/星际启示录/星际空间][REMUX][1080P-42.7G][MKV]DTS

  [复制链接]
蓝光币
426
发表于 2015-9-12 16:41:22 | 显示全部楼层 |阅读模式

[美国][科幻][2014][星际穿越/星际效应/星际启迪录/星际空间][REMUX][1080P-42.7G][MKV]DTS
104143vtskstuvnxrkx1mr.jpg

◎影片根基信息
巨细: 42.7G
清楚度: 1080P
视频: MKV
制片国家/地域: 美国 / 英国 / 加拿大
说话: 英语
上映日期: 2014-11-12(中国大陆) / 2014-11-07(美国)
片长: 169分钟
豆瓣评分: 9.1
导演: 克里斯托弗·诺兰
编剧: 乔纳森·诺兰 / 克里斯托弗·诺兰
主演: 马修·麦康纳 / 安妮·海瑟薇 / 杰西卡·查斯坦 / 迈克尔·凯恩 / 麦肯吉·弗依 / 更多...
范例: 科幻 / 悬疑 / 冒险
别名: 星际启迪录(港) / 星际效应(台) / 星际空间 / 星际之间 / 星际远航 / 星际 / Flora's Letter
影片: Interstellar.2014.1080p.BluRay.REMUX.AVC.DTS-HD.MA.5.1-RARBG

◎剧情简介
       影片发生在不远的未来,地球天气已经不合适食粮发展,水资本干涸,饥荒肆掠,人类面临着灭绝的威胁。这时科学家们发现了一个奥秘的“时空裂口”,经过它可以到外太空寻觅延续生命希望的机遇。一个探险小组穿越到太阳系之外,他们的方针是找到一颗合适人类移民的星球。在这艘名叫做“Endurance”的飞船上,探险队员着面临着史无前例,人类思惟前所未及的庞大应战。但是,经过虫洞的时辰,他们发现飞船上的一个小时相当于地球上的七年时候,即使探险小组的使命可以完成,他们能供给的救赎对于对地球上在世的人来说已经是太晚。飞翔员库珀(马修·麦康纳 饰演)必须在与自己的后代重逢以及拯救人类的未来之间做出决定。
获奖记录

奥斯卡金像奖(2015;第87届)

获奖
·奥斯卡奖-最好视觉结果 Scott R. Fisher  保罗·J·富兰克林 Paul J. Franklin   Ian Hunter  安德鲁·洛克利 Andrew Lockley  

提名
·奥斯卡奖-最好声响结果 Gregg Landaker    Gary Rizzo   Mark Weingarten  
·奥斯卡奖-最好音效剪辑理查德·金 Richard King  
·奥斯卡奖-最好原创配乐汉斯·季默 Hans Zimmer  
·奥斯卡奖-最好艺术指导内森·克劳利 Nathan Crowley  盖瑞·费蒂丝 Gary Fettis  

-------------------------

  1. Video
  2. ID                                       : 1
  3. Format                                   : AVC
  4. Format/Info                              : Advanced Video Codec
  5. Format profile                           : [email protected]
  6. Format settings, CABAC                   : Yes
  7. Format settings, ReFrames                : 2 frames
  8. Format settings, GOP                     : M=1, N=10
  9. Codec ID                                 : V_MPEG4/ISO/AVC
  10. Duration                                 : 2h 49mn
  11. Bit rate mode                            : Variable
  12. Width                                    : 1 920 pixels
  13. Height                                   : 1 080 pixels
  14. Display aspect ratio                     : 16:9
  15. Frame rate mode                          : Constant
  16. Frame rate                               : 23.976 fps
  17. Color space                              : YUV
  18. Chroma subsampling                       : 4:2:0
  19. Bit depth                                : 8 bits
  20. Scan type                                : Progressive
  21. Language                                 : English
  22. Default                                  : No
  23. Forced                                   : No

  24. Audio #1
  25. ID                                       : 2
  26. Format                                   : DTS
  27. Format/Info                              : Digital Theater Systems
  28. Format profile                           : MA / Core
  29. Mode                                     : 16
  30. Format settings, Endianness              : Big
  31. Codec ID                                 : A_DTS
  32. Duration                                 : 2h 49mn
  33. Bit rate mode                            : Variable
  34. Bit rate                                 : Unknown / 1 509 Kbps
  35. Channel(s)                               : 6 channels
  36. Channel positions                        : Front: L C R, Side: L R, LFE
  37. Sampling rate                            : 48.0 KHz
  38. Bit depth                                : 24 bits
  39. Compression mode                         : Lossless / Lossy
  40. Title                                    : Surround 5.1
  41. Language                                 : English
  42. Default                                  : Yes
  43. Forced                                   : No

  44. Audio #2
  45. ID                                       : 3
  46. Format                                   : DTS
  47. Format/Info                              : Digital Theater Systems
  48. Mode                                     : 16
  49. Format settings, Endianness              : Big
  50. Codec ID                                 : A_DTS
  51. Duration                                 : 2h 49mn
  52. Bit rate mode                            : Constant
  53. Bit rate                                 : 1 509 Kbps
  54. Channel(s)                               : 6 channels
  55. Channel positions                        : Front: L C R, Side: L R, LFE
  56. Sampling rate                            : 48.0 KHz
  57. Bit depth                                : 24 bits
  58. Compression mode                         : Lossy
  59. Stream size                              : 1.78 GiB (4%)
  60. Title                                    : Surround 5.1
  61. Language                                 : English
  62. Default                                  : No
  63. Forced                                   : No

  64. Audio #3
  65. ID                                       : 4
  66. Format                                   : AC-3
  67. Format/Info                              : Audio Coding 3
  68. Mode extension                           : CM (complete main)
  69. Format settings, Endianness              : Big
  70. Codec ID                                 : A_AC3
  71. Duration                                 : 2h 49mn
  72. Bit rate mode                            : Constant
  73. Bit rate                                 : 640 Kbps
  74. Channel(s)                               : 6 channels
  75. Channel positions                        : Front: L C R, Side: L R, LFE
  76. Sampling rate                            : 48.0 KHz
  77. Bit depth                                : 16 bits
  78. Compression mode                         : Lossy
  79. Stream size                              : 774 MiB (2%)
  80. Title                                    : Surround 5.1
  81. Language                                 : English
  82. Default                                  : No
  83. Forced                                   : No

  84. Audio #4
  85. ID                                       : 5
  86. Format                                   : DTS
  87. Format/Info                              : Digital Theater Systems
  88. Format profile                           : MA / Core
  89. Mode                                     : 16
  90. Format settings, Endianness              : Big
  91. Codec ID                                 : A_DTS
  92. Duration                                 : 2h 49mn
  93. Bit rate mode                            : Variable
  94. Bit rate                                 : Unknown / 1 509 Kbps
  95. Channel(s)                               : 6 channels
  96. Channel positions                        : Front: L C R, Side: L R, LFE
  97. Sampling rate                            : 48.0 KHz
  98. Bit depth                                : 24 bits
  99. Compression mode                         : Lossless / Lossy
  100. Title                                    : Surround 5.1
  101. Language                                 : German
  102. Default                                  : No
  103. Forced                                   : No

  104. Audio #5
  105. ID                                       : 6
  106. Format                                   : DTS
  107. Format/Info                              : Digital Theater Systems
  108. Mode                                     : 16
  109. Format settings, Endianness              : Big
  110. Codec ID                                 : A_DTS
  111. Duration                                 : 2h 49mn
  112. Bit rate mode                            : Constant
  113. Bit rate                                 : 1 509 Kbps
  114. Channel(s)                               : 6 channels
  115. Channel positions                        : Front: L C R, Side: L R, LFE
  116. Sampling rate                            : 48.0 KHz
  117. Bit depth                                : 24 bits
  118. Compression mode                         : Lossy
  119. Stream size                              : 1.78 GiB (4%)
  120. Title                                    : Surround 5.1
  121. Language                                 : German
  122. Default                                  : No
  123. Forced                                   : No

  124. Audio #6
  125. ID                                       : 7
  126. Format                                   : AC-3
  127. Format/Info                              : Audio Coding 3
  128. Mode extension                           : CM (complete main)
  129. Format settings, Endianness              : Big
  130. Codec ID                                 : A_AC3
  131. Duration                                 : 2h 49mn
  132. Bit rate mode                            : Constant
  133. Bit rate                                 : 640 Kbps
  134. Channel(s)                               : 6 channels
  135. Channel positions                        : Front: L C R, Side: L R, LFE
  136. Sampling rate                            : 48.0 KHz
  137. Bit depth                                : 16 bits
  138. Compression mode                         : Lossy
  139. Stream size                              : 774 MiB (2%)
  140. Title                                    : Surround 5.1
  141. Language                                 : Spanish
  142. Default                                  : No
  143. Forced                                   : No
复制代码

复制代码

-------------------------
◎出色剧照
104142ufros92phf4vrams.jpg
104143neijs8cb3b8l4gol.jpg
104144cir3zd5uf3r79js1.jpg
104144ernuyywyyelwezwr.jpg

-------------------------
[以上高清电影剧照来自互联网,不代表此片高清剧照]
慎重声明:本站供给的一切高清电影作品均是在网上汇集,任何触及贸易盈利目标均不得利用,否则发生的一切结果将由您自己承当!本站将差池本站的任何内容负任何法令义务!该下载内容仅做宽带测试利用,请鄙人载后24小时内删除。请采办正
版!
-------------------------
◎种子下载地址
旅客,假如您要检察本帖隐藏内容请答复
回复

使用道具 举报

蓝光币
123
发表于 2020-9-5 10:40:45 来自手机 | 显示全部楼层
好帖支持下!
回复 支持 反对

使用道具 举报

蓝光币
25
发表于 2020-11-3 00:00:31 来自手机 | 显示全部楼层
感谢楼主分享
回复 支持 反对

使用道具 举报

蓝光币
3
发表于 2020-11-13 17:32:18 | 显示全部楼层
感谢分享,支持
回复 支持 反对

使用道具 举报

蓝光币
1
发表于 2021-7-9 12:00:52 | 显示全部楼层
这么大的mkv吗
回复 支持 反对

使用道具 举报

蓝光币
1
发表于 2021-8-21 16:09:53 | 显示全部楼层
感谢楼主分享
回复 支持 反对

使用道具 举报

蓝光币
5
发表于 2021-9-11 10:17:39 | 显示全部楼层
扽给    过 俺是个爱国
回复 支持 反对

使用道具 举报

懒得打字嘛,点击右侧快捷回复 【右侧内容,后台自定义】
您需要登录后才可以回帖 登录 | 立即加入

本版积分规则

Archiver|小黑屋| 蓝光电影网 |网站地图

Copyright © 2021 Comsenz Inc. Powered by 蓝光电影网

蓝光电影网

本站内容由用户自主分享和转载自互联网,转载目的在于传递更多信息,并不代表本网赞同其观点和对其真实性负责。

如有侵权、违反国家法律政策行为,请联系我们,我们会第一时间及时清除和处理!

举报反馈邮箱:[email protected]

快速回复 返回顶部 返回列表