找回密码

蓝光电影网

查看: 1546|回复: 9

[2014][动画][REMUX][海洋之歌][爱尔兰][水彩背景很漂亮][1080P-23.87G][MKV]DTS

[复制链接]
蓝光币
426
发表于 2015-9-12 16:59:38 | 显示全部楼层 |阅读模式



[2014][动画][REMUX][陆地之歌Song.of.the.Sea.2014.1080p.BluRay.REMUX.AVC.DTS-HD.MA.5.1-RARBG][1080P-23.87G][MKV]DTS
172017et9rmrmhhtaaatmf.jpg

◎影片根基信息
◎译  名 陆地之歌
◎片  名 Song of the Sea
◎年  代 2014
◎国  家 爱尔兰/丹麦/比利时/卢森堡/法国
◎类  别 动画/家庭/空想
◎语  言 英语
◎字  幕 英文/法文
◎片  长 01:34:00
◎导  演 汤姆·摩尔
◎主  演 布莱丹·格里森
                  菲奥纽拉·弗拉纳根
      David Rawle
      Lisa Hannigan
      帕特·绍特
      Jon Kenny
影片: Song.of.the.Sea.2014.1080p.BluRay.REMUX.AVC.DTS-HD.MA.5.1-RARBG

◎剧情简介
       《陆地之歌》是汤姆·摩尔执导的第二部动画电影,他的首部动画电影是2009年入围奥斯卡奖评选的《凯尔经的奥秘》。他那布满多少形式感的画面,在三维CG动画牢牢占据大银幕的明天,仿佛带给全天下一股难能宝贵清新之风。在这部新作中,你又能见到那种独树一帜的有多少美感的构型了。

       故事布景设备在了现代社会,是有关于一个塞尔奇小精灵的官方传闻,她是最初一个具有着海豹表面却能化为人形的生物,尝试着想要重新回到大海里——那是一个童话天下行将终结的时候点,一切只存在于官方传闻中的生物全数在现代社会的影响下,越发地出错、败北,他们底子就不想回去,可小精灵的歌声却是让他们回归的唯一法子……

      一个有点哀痛的故事,却以一种很是美好的方式显现出来。

       该片由爱尔兰Cartoon Saloon公司建造,比利时、丹麦、法国、卢森堡等多家工作室结合投拍,是一部欧洲多国合作片。
-------------------------

  1. Video
  2. ID                                       : 1
  3. Format                                   : AVC
  4. Format/Info                              : Advanced Video Codec
  5. Format profile                           : [email protected]
  6. Format settings, CABAC                   : Yes
  7. Format settings, ReFrames                : 4 frames
  8. Format settings, GOP                     : M=3, N=12
  9. Codec ID                                 : V_MPEG4/ISO/AVC
  10. Duration                                 : 1h 33mn
  11. Bit rate mode                            : Variable
  12. Maximum bit rate                         : 35.0 Mbps
  13. Width                                    : 1 920 pixels
  14. Height                                   : 1 080 pixels
  15. Display aspect ratio                     : 16:9
  16. Frame rate mode                          : Constant
  17. Frame rate                               : 23.976 fps
  18. Color space                              : YUV
  19. Chroma subsampling                       : 4:2:0
  20. Bit depth                                : 8 bits
  21. Scan type                                : Progressive
  22. Title                                    : Song.of.the.Sea.2014.1080p.BluRay.REMUX.AVC.DTS-HD.MA.5.1-RARBG
  23. Language                                 : English
  24. Default                                  : No
  25. Forced                                   : No

  26. Audio #1
  27. ID                                       : 2
  28. Format                                   : DTS
  29. Format/Info                              : Digital Theater Systems
  30. Format profile                           : MA / Core
  31. Mode                                     : 16
  32. Format settings, Endianness              : Big
  33. Codec ID                                 : A_DTS
  34. Duration                                 : 1h 33mn
  35. Bit rate mode                            : Variable
  36. Bit rate                                 : Unknown / 1 509 Kbps
  37. Channel(s)                               : 6 channels
  38. Channel positions                        : Front: L C R, Side: L R, LFE
  39. Sampling rate                            : 48.0 KHz
  40. Bit depth                                : 24 bits
  41. Compression mode                         : Lossless / Lossy
  42. Title                                    : Song.of.the.Sea.2014.1080p.BluRay.REMUX.AVC.DTS-HD.MA.5.1-RARBG
  43. Language                                 : English
  44. Default                                  : Yes
  45. Forced                                   : No

  46. Audio #2
  47. ID                                       : 3
  48. Format                                   : DTS
  49. Format/Info                              : Digital Theater Systems
  50. Mode                                     : 16
  51. Format settings, Endianness              : Big
  52. Codec ID                                 : A_DTS
  53. Duration                                 : 1h 33mn
  54. Bit rate mode                            : Constant
  55. Bit rate                                 : 1 509 Kbps
  56. Channel(s)                               : 6 channels
  57. Channel positions                        : Front: L C R, Side: L R, LFE
  58. Sampling rate                            : 48.0 KHz
  59. Bit depth                                : 24 bits
  60. Compression mode                         : Lossy
  61. Stream size                              : 1 015 MiB (4%)
  62. Title                                    : Song.of.the.Sea.2014.1080p.BluRay.REMUX.AVC.DTS-HD.MA.5.1-RARBG
  63. Language                                 : English
  64. Default                                  : No
  65. Forced                                   : No

  66. Audio #3
  67. ID                                       : 4
  68. Format                                   : AC-3
  69. Format/Info                              : Audio Coding 3
  70. Mode extension                           : CM (complete main)
  71. Format settings, Endianness              : Big
  72. Codec ID                                 : A_AC3
  73. Duration                                 : 1h 33mn
  74. Bit rate mode                            : Constant
  75. Bit rate                                 : 192 Kbps
  76. Channel(s)                               : 2 channels
  77. Channel positions                        : Front: L R
  78. Sampling rate                            : 48.0 KHz
  79. Bit depth                                : 16 bits
  80. Compression mode                         : Lossy
  81. Stream size                              : 129 MiB (1%)
  82. Title                                    : Song.of.the.Sea.2014.1080p.BluRay.REMUX.AVC.DTS-HD.MA.5.1-RARBG
  83. Language                                 : English
  84. Default                                  : No
  85. Forced                                   : No

  86. Text #1
  87. ID                                       : 5
  88. Format                                   : PGS
  89. Muxing mode                              : zlib
  90. Codec ID                                 : S_HDMV/PGS
  91. Codec ID/Info                            : The same subtitle format used on BDs/HD-DVDs
  92. Language                                 : English
  93. Default                                  : No
  94. Forced                                   : No

  95. Text #2
  96. ID                                       : 6
  97. Format                                   : PGS
  98. Muxing mode                              : zlib
  99. Codec ID                                 : S_HDMV/PGS
  100. Codec ID/Info                            : The same subtitle format used on BDs/HD-DVDs
  101. Language                                 : French
  102. Default                                  : No
  103. Forced                                   : No

  104. Menu
  105. 00:00:00.000                             : en:Chapter 01
  106. 00:04:26.057                             : en:Chapter 02
  107. 00:09:28.943                             : en:Chapter 03
  108. 00:13:23.761                             : en:Chapter 04
  109. 00:18:49.586                             : en:Chapter 05
  110. 00:23:29.741                             : en:Chapter 06
  111. 00:26:30.338                             : en:Chapter 07
  112. 00:31:07.156                             : en:Chapter 08
  113. 00:35:10.399                             : en:Chapter 09
  114. 00:39:53.307                             : en:Chapter 10
  115. 00:44:19.114                             : en:Chapter 11
  116. 00:48:53.055                             : en:Chapter 12
  117. 00:52:21.346                             : en:Chapter 13
  118. 00:56:24.672                             : en:Chapter 14
  119. 00:59:58.094                             : en:Chapter 15
  120. 01:04:53.222                             : en:Chapter 16
  121. 01:08:52.461                             : en:Chapter 17
  122. 01:12:59.708                             : en:Chapter 18
  123. 01:17:48.288                             : en:Chapter 19
  124. 01:26:46.993                             : en:Chapter 20
复制代码

复制代码

-------------------------
◎出色剧照
172015q7tjj2jicr79ccfk.jpg
172013vyo6cy87y6c77g7x.jpg
172017jrfhavzfmhc9ccah.jpg

-------------------------
[以上高清电影剧照来自互联网,不代表此片高清剧照]
慎重声明:本站供给的一切高清电影作品均是在网上汇集,任何触及贸易盈利目标均不得利用,否则发生的一切结果将由您自己承当!本站将差池本站的任何内容负任何法令义务!该下载内容仅做宽带测试利用,请鄙人载后24小时内删除。请采办正
版!
-------------------------
◎种子下载地址
旅客,假如您要检察本帖隐藏内容请答复
回复

使用道具 举报

蓝光币
464
发表于 2019-6-10 15:43:52 | 显示全部楼层
感谢楼主分享好资源
回复 支持 反对

使用道具 举报

蓝光币
51
发表于 2021-8-25 22:37:22 | 显示全部楼层
这个画面太漂亮了
回复 支持 反对

使用道具 举报

懒得打字嘛,点击右侧快捷回复 【右侧内容,后台自定义】
您需要登录后才可以回帖 登录 | 立即加入

本版积分规则

Archiver|小黑屋| 蓝光电影网 |网站地图

Copyright © 2021 Comsenz Inc. Powered by 蓝光电影网

蓝光电影网

本站内容由用户自主分享和转载自互联网,转载目的在于传递更多信息,并不代表本网赞同其观点和对其真实性负责。

如有侵权、违反国家法律政策行为,请联系我们,我们会第一时间及时清除和处理!

举报反馈邮箱:[email protected]

快速回复 返回顶部 返回列表