找回密码

蓝光电影网

查看: 1228|回复: 2

[2015][美国][恐怖][污物Muck.2015.1080p.BluRay.x264.DD5.1-RARBG][1080P-8.4G][MKV]DTS

[复制链接]
蓝光币
426
发表于 2015-9-12 17:01:34 | 显示全部楼层 |阅读模式

[2015][美国][可骇][污物Muck.2015.1080p.BluRay.x264.DD5.1-RARBG][1080P-8.4G][MKV]DTS
121103o8adzn83188n1jab.jpg

◎影片根基信息
巨细: 8.4G
清楚度: 1080P
视频: MKV
导演: Steve Wolsh
编剧: Steve Wolsh
主演: 拉奇兰·布坎南 / Kane Hodder / Bryce Draper
范例: 可骇
制片国家/地域: 美国
说话: 英语
上映日期: 2015-03-13(美国)
片长: 90分钟
影片: Muck.2015.1080p.BluRay.x264.DD5.1-RARBG

◎剧情简介
       After narrowly escaping an ancient burial ground, a group of friends find themselves trapped between two evils, forcing them to fight, die, or go back the way they came.
-------------------------

  1. Video
  2. ID                                       : 1
  3. Format                                   : AVC
  4. Format/Info                              : Advanced Video Codec
  5. Format profile                           : [email protected]
  6. Format settings, CABAC                   : Yes
  7. Format settings, ReFrames                : 4 frames
  8. Codec ID                                 : V_MPEG4/ISO/AVC
  9. Duration                                 : 1h 38mn
  10. Bit rate                                 : 11.5 Mbps
  11. Width                                    : 1 920 pixels
  12. Height                                   : 1 036 pixels
  13. Display aspect ratio                     : 1.85:1
  14. Frame rate mode                          : Constant
  15. Frame rate                               : 23.976 fps
  16. Color space                              : YUV
  17. Chroma subsampling                       : 4:2:0
  18. Bit depth                                : 8 bits
  19. Scan type                                : Progressive
  20. Bits/(Pixel*Frame)                       : 0.241
  21. Stream size                              : 7.79 GiB (93%)
  22. Title                                    : Muck.2015.1080p.BluRay.x264.DD5.1-RARBG
  23. Writing library                          : x264 core 144 r96 40bb568
  24. Encoding settings                        : cabac=1 / ref=4 / deblock=1:-2:-2 / analyse=0x3:0x113 / me=umh / subme=7 / psy=1 / psy_rd=1.00:0.15 / mixed_ref=1 / me_range=16 / chroma_me=1 / trellis=1 / 8x8dct=1 / cqm=0 / deadzone=21,11 / fast_pskip=1 / chroma_qp_offset=-3 / threads=12 / lookahead_threads=3 / sliced_threads=0 / nr=0 / decimate=1 / interlaced=0 / bluray_compat=0 / constrained_intra=0 / bframes=3 / b_pyramid=2 / b_adapt=2 / b_bias=0 / direct=3 / weightb=1 / open_gop=0 / weightp=2 / keyint=250 / keyint_min=25 / scenecut=40 / intra_refresh=0 / rc_lookahead=50 / rc=abr / mbtree=1 / bitrate=11500 / ratetol=1.0 / qcomp=0.60 / qpmin=0 / qpmax=69 / qpstep=4 / vbv_maxrate=31250 / vbv_bufsize=31250 / nal_hrd=none / filler=0 / ip_ratio=1.40 / aq=1:1.00
  25. Language                                 : English
  26. Default                                  : Yes
  27. Forced                                   : No

  28. Audio
  29. ID                                       : 2
  30. Format                                   : AC-3
  31. Format/Info                              : Audio Coding 3
  32. Mode extension                           : CM (complete main)
  33. Format settings, Endianness              : Big
  34. Codec ID                                 : A_AC3
  35. Duration                                 : 1h 38mn
  36. Bit rate mode                            : Constant
  37. Bit rate                                 : 640 Kbps
  38. Channel(s)                               : 6 channels
  39. Channel positions                        : Front: L C R, Side: L R, LFE
  40. Sampling rate                            : 48.0 KHz
  41. Bit depth                                : 16 bits
  42. Compression mode                         : Lossy
  43. Stream size                              : 451 MiB (5%)
  44. Title                                    : Muck.2015.1080p.BluRay.x264.DD5.1-RARBG
  45. Language                                 : English
  46. Default                                  : Yes
  47. Forced                                   : No

  48. Text
  49. ID                                       : 3
  50. Format                                   : UTF-8
  51. Codec ID                                 : S_TEXT/UTF8
  52. Codec ID/Info                            : UTF-8 Plain Text
  53. Title                                    : SDH
  54. Language                                 : English
  55. Default                                  : No
  56. Forced                                   : No

  57. Menu
  58. 00:00:00.000                             : en:Chapter 01
  59. 00:08:17.788                             : en:Chapter 02
  60. 00:21:53.603                             : en:Chapter 03
  61. 00:26:34.884                             : en:Chapter 04
  62. 00:34:26.564                             : en:Chapter 05
  63. 00:40:53.075                             : en:Chapter 06
  64. 00:49:06.693                             : en:Chapter 07
  65. 00:54:48.910                             : en:Chapter 08
  66. 01:01:44.409                             : en:Chapter 09
  67. 01:11:48.095                             : en:Chapter 10
  68. 01:20:16.645                             : en:Chapter 11
  69. 01:29:48.299                             : en:Chapter 12
复制代码

复制代码

-------------------------
◎出色剧照
121055u8889p1wnwwdtdwg.jpg
121057i8jjmcoeflu0uj10.jpg
121059zede3fqf7dpfeze3.jpg

-------------------------
[以上高清电影剧照来自互联网,不代表此片高清剧照]
慎重声明:本站供给的一切高清电影作品均是在网上汇集,任何触及贸易盈利目标均不得利用,否则发生的一切结果将由您自己承当!本站将差池本站的任何内容负任何法令义务!该下载内容仅做宽带测试利用,请鄙人载后24小时内删除。请采办正
版!
-------------------------
◎种子下载地址
旅客,假如您要检察本帖隐藏内容请答复
回复

使用道具 举报

懒得打字嘛,点击右侧快捷回复 【右侧内容,后台自定义】
您需要登录后才可以回帖 登录 | 立即加入

本版积分规则

Archiver|小黑屋| 蓝光电影网 |网站地图

Copyright © 2021 Comsenz Inc. Powered by 蓝光电影网

蓝光电影网

本站内容由用户自主分享和转载自互联网,转载目的在于传递更多信息,并不代表本网赞同其观点和对其真实性负责。

如有侵权、违反国家法律政策行为,请联系我们,我们会第一时间及时清除和处理!

举报反馈邮箱:[email protected]

快速回复 返回顶部 返回列表