找回密码

蓝光电影网

查看: 519|回复: 1

[2014][剧情][美国][涉足荒野/狂野行/野外/走出荒野/那时候,我只剩下勇敢][REMUX][1080P-29.4G][MKV]DTS

[复制链接]
蓝光币
382
发表于 2015-9-12 17:20:10 | 显示全部楼层 |阅读模式

[2014][剧情][美国][涉足荒原/狂野行/田野/走出荒原/那时辰,我只剩下勇敢][REMUX][1080P-29.4G][MKV]DTS
173621i663ey6er6683f5y.jpg

◎影片根基信息
巨细: 29.4G
清楚度: 1080P
视频: MKV
豆瓣评分: 7.5
导演: 让-马克·瓦雷
编剧: 尼克·霍恩比 / Cheryl Strayed
主演: 瑞茜·威瑟斯彭 / 盖比·霍夫曼 / 劳拉·邓恩 / 查尔斯·贝克 / 凯文·兰金 / 更多...
范例: 剧情 / 列传
制片国家/地域: 美国
说话: 英语
上映日期: 2014-12-05(美国)
片长: 115分钟
别名: 那时辰,我只剩下勇敢(台) / 狂野行(港) / 走出荒原
影片: Wild.2014.1080p.BluRay.x264.DTS-HD.MA.5.1-RARBG

◎剧情简介
       影片改编自美国作家谢莉尔·斯瑞德2012年的同名自传,报告婚姻触礁,母亲归天,自己在失望中生活多年以后,虽然毫无徒步经历,却单独一人踏上Pacific Crest Trail 远足之路,经过远程步行找回自我的故事。
-------------------------

  1. Video
  2. ID                                       : 1
  3. Format                                   : AVC
  4. Format/Info                              : Advanced Video Codec
  5. Format profile                           : [email protected]
  6. Format settings, CABAC                   : Yes
  7. Format settings, ReFrames                : 2 frames
  8. Codec ID                                 : V_MPEG4/ISO/AVC
  9. Duration                                 : 1h 55mn
  10. Bit rate mode                            : Variable
  11. Width                                    : 1 920 pixels
  12. Height                                   : 1 080 pixels
  13. Display aspect ratio                     : 16:9
  14. Frame rate mode                          : Constant
  15. Frame rate                               : 23.976 fps
  16. Color space                              : YUV
  17. Chroma subsampling                       : 4:2:0
  18. Bit depth                                : 8 bits
  19. Scan type                                : Progressive
  20. Language                                 : English
  21. Default                                  : No
  22. Forced                                   : No

  23. Audio #1
  24. ID                                       : 2
  25. Format                                   : DTS
  26. Format/Info                              : Digital Theater Systems
  27. Format profile                           : MA / Core
  28. Mode                                     : 16
  29. Format settings, Endianness              : Big
  30. Codec ID                                 : A_DTS
  31. Duration                                 : 1h 55mn
  32. Bit rate mode                            : Variable
  33. Bit rate                                 : Unknown / 1 509 Kbps
  34. Channel(s)                               : 6 channels
  35. Channel positions                        : Front: L C R, Side: L R, LFE
  36. Sampling rate                            : 48.0 KHz
  37. Bit depth                                : 24 bits
  38. Compression mode                         : Lossless / Lossy
  39. Title                                    : Surround 5.1
  40. Language                                 : English
  41. Default                                  : Yes
  42. Forced                                   : No

  43. Audio #2
  44. ID                                       : 3
  45. Format                                   : DTS
  46. Format/Info                              : Digital Theater Systems
  47. Mode                                     : 16
  48. Format settings, Endianness              : Big
  49. Codec ID                                 : A_DTS
  50. Duration                                 : 1h 55mn
  51. Bit rate mode                            : Constant
  52. Bit rate                                 : 1 509 Kbps
  53. Channel(s)                               : 6 channels
  54. Channel positions                        : Front: L C R, Side: L R, LFE
  55. Sampling rate                            : 48.0 KHz
  56. Bit depth                                : 24 bits
  57. Compression mode                         : Lossy
  58. Stream size                              : 1.22 GiB (4%)
  59. Title                                    : Surround 5.1
  60. Language                                 : English
  61. Default                                  : No
  62. Forced                                   : No

  63. Audio #3
  64. ID                                       : 4
  65. Format                                   : AC-3
  66. Format/Info                              : Audio Coding 3
  67. Mode extension                           : CM (complete main)
  68. Format settings, Endianness              : Big
  69. Codec ID                                 : A_AC3
  70. Duration                                 : 1h 55mn
  71. Bit rate mode                            : Constant
  72. Bit rate                                 : 448 Kbps
  73. Channel(s)                               : 6 channels
  74. Channel positions                        : Front: L C R, Side: L R, LFE
  75. Sampling rate                            : 48.0 KHz
  76. Bit depth                                : 16 bits
  77. Compression mode                         : Lossy
  78. Stream size                              : 370 MiB (1%)
  79. Title                                    : Surround 5.1
  80. Language                                 : English
  81. Default                                  : No
  82. Forced                                   : No

  83. Audio #4
  84. ID                                       : 5
  85. Format                                   : AC-3
  86. Format/Info                              : Audio Coding 3
  87. Mode extension                           : CM (complete main)
  88. Format settings, Endianness              : Big
  89. Codec ID                                 : A_AC3
  90. Duration                                 : 1h 55mn
  91. Bit rate mode                            : Constant
  92. Bit rate                                 : 448 Kbps
  93. Channel(s)                               : 6 channels
  94. Channel positions                        : Front: L C R, Side: L R, LFE
  95. Sampling rate                            : 48.0 KHz
  96. Bit depth                                : 16 bits
  97. Compression mode                         : Lossy
  98. Stream size                              : 370 MiB (1%)
  99. Title                                    : Surround 5.1
  100. Language                                 : Spanish
  101. Default                                  : No
  102. Forced                                   : No

  103. Audio #5
  104. ID                                       : 6
  105. Format                                   : AC-3
  106. Format/Info                              : Audio Coding 3
  107. Mode extension                           : CM (complete main)
  108. Format settings, Endianness              : Big
  109. Codec ID                                 : A_AC3
  110. Duration                                 : 1h 55mn
  111. Bit rate mode                            : Constant
  112. Bit rate                                 : 448 Kbps
  113. Channel(s)                               : 6 channels
  114. Channel positions                        : Front: L C R, Side: L R, LFE
  115. Sampling rate                            : 48.0 KHz
  116. Bit depth                                : 16 bits
  117. Compression mode                         : Lossy
  118. Stream size                              : 370 MiB (1%)
  119. Title                                    : Surround 5.1
  120. Language                                 : French
  121. Default                                  : No
  122. Forced                                   : No

  123. Audio #6
  124. ID                                       : 7
  125. Format                                   : AC-3
  126. Format/Info                              : Audio Coding 3
  127. Mode extension                           : CM (complete main)
  128. Format settings, Endianness              : Big
  129. Codec ID                                 : A_AC3
  130. Duration                                 : 1h 55mn
  131. Bit rate mode                            : Constant
  132. Bit rate                                 : 224 Kbps
  133. Channel(s)                               : 2 channels
  134. Channel positions                        : Front: L R
  135. Sampling rate                            : 48.0 KHz
  136. Bit depth                                : 16 bits
  137. Compression mode                         : Lossy
  138. Stream size                              : 185 MiB (1%)
  139. Title                                    : Stereo
  140. Language                                 : English
  141. Default                                  : No
  142. Forced                                   : No

  143. Text #1
  144. ID                                       : 8
  145. Format                                   : PGS
  146. Codec ID                                 : S_HDMV/PGS
  147. Codec ID/Info                            : The same subtitle format used on BDs/HD-DVDs
  148. Language                                 : English
  149. Default                                  : No
  150. Forced                                   : No

  151. Text #2
  152. ID                                       : 10
  153. Format                                   : PGS
  154. Codec ID                                 : S_HDMV/PGS
  155. Codec ID/Info                            : The same subtitle format used on BDs/HD-DVDs
  156. Language                                 : Spanish
  157. Default                                  : No
  158. Forced                                   : No

  159. Text #3
  160. ID                                       : 12
  161. Format                                   : PGS
  162. Codec ID                                 : S_HDMV/PGS
  163. Codec ID/Info                            : The same subtitle format used on BDs/HD-DVDs
  164. Language                                 : French
  165. Default                                  : No
  166. Forced                                   : No

  167. Text #4
  168. ID                                       : 13
  169. Format                                   : PGS
  170. Codec ID                                 : S_HDMV/PGS
  171. Codec ID/Info                            : The same subtitle format used on BDs/HD-DVDs
  172. Language                                 : French
  173. Default                                  : No
  174. Forced                                   : No
复制代码

复制代码

-------------------------
◎出色剧照
173617sbtpbsxkr282jb2u.jpg
173618xkys1v5vgvwyt1m4.jpg
173620qeuu3owrsne1cguw.jpg

-------------------------
[以上高清电影剧照来自互联网,不代表此片高清剧照]
慎重声明:本站供给的一切高清电影作品均是在网上汇集,任何触及贸易盈利目标均不得利用,否则发生的一切结果将由您自己承当!本站将差池本站的任何内容负任何法令义务!该下载内容仅做宽带测试利用,请鄙人载后24小时内删除。请采办正
版!
-------------------------
◎种子下载地址
旅客,假如您要检察本帖隐藏内容请答复
回复

使用道具 举报

懒得打字嘛,点击右侧快捷回复 【右侧内容,后台自定义】
您需要登录后才可以回帖 登录 | 立即加入

本版积分规则

Archiver|小黑屋| 蓝光电影网 |网站地图

Copyright © 2021 Comsenz Inc. Powered by 蓝光电影网

蓝光电影网

本站内容由用户自主分享和转载自互联网,转载目的在于传递更多信息,并不代表本网赞同其观点和对其真实性负责。

如有侵权、违反国家法律政策行为,请联系我们,我们会第一时间及时清除和处理!

举报反馈邮箱:[email protected]

快速回复 返回顶部 返回列表